  0
SECTION
  2
HEADER
  9
$ACADVER
  1
AC1015
  9
$ACADMAINTVER
 70
    13
  9
$DWGCODEPAGE
  3
ANSI_1252
  9
$INSBASE
 10
0.0
 20
0.0
 30
0.0
  9
$EXTMIN
 10
5.686929561977331
 20
8.606884786896376
 30
0.0
  9
$EXTMAX
 10
27.32483744808306
 20
30.41473220716891
 30
0.0
  9
$LIMMIN
 10
0.0
 20
0.0
  9
$LIMMAX
 10
12.0
 20
9.0
  9
$ORTHOMODE
 70
     1
  9
$REGENMODE
 70
     1
  9
$FILLMODE
 70
     1
  9
$QTEXTMODE
 70
     0
  9
$MIRRTEXT
 70
     1
  9
$LTSCALE
 40
1.0
  9
$ATTMODE
 70
     1
  9
$TEXTSIZE
 40
0.1
  9
$TRACEWID
 40
0.05
  9
$TEXTSTYLE
  7
Standard
  9
$CLAYER
  8
EXT
  9
$CELTYPE
  6
Continuous
  9
$CECOLOR
 62
   256
  9
$CELTSCALE
 40
1.0
  9
$DISPSILH
 70
     0
  9
$DIMSCALE
 40
0.5
  9
$DIMASZ
 40
0.18
  9
$DIMEXO
 40
0.0625
  9
$DIMDLI
 40
0.38
  9
$DIMRND
 40
0.0
  9
$DIMDLE
 40
0.0
  9
$DIMEXE
 40
0.18
  9
$DIMTP
 40
0.0
  9
$DIMTM
 40
0.0
  9
$DIMTXT
 40
0.18
  9
$DIMCEN
 40
0.09
  9
$DIMTSZ
 40
0.0
  9
$DIMTOL
 70
     0
  9
$DIMLIM
 70
     0
  9
$DIMTIH
 70
     1
  9
$DIMTOH
 70
     1
  9
$DIMSE1
 70
     0
  9
$DIMSE2
 70
     0
  9
$DIMTAD
 70
     0
  9
$DIMZIN
 70
     0
  9
$DIMBLK
  1

  9
$DIMASO
 70
     1
  9
$DIMSHO
 70
     1
  9
$DIMPOST
  1

  9
$DIMAPOST
  1

  9
$DIMALT
 70
     0
  9
$DIMALTD
 70
     2
  9
$DIMALTF
 40
25.4
  9
$DIMLFAC
 40
1.0
  9
$DIMTOFL
 70
     0
  9
$DIMTVP
 40
0.0
  9
$DIMTIX
 70
     0
  9
$DIMSOXD
 70
     0
  9
$DIMSAH
 70
     0
  9
$DIMBLK1
  1

  9
$DIMBLK2
  1

  9
$DIMSTYLE
  2
Standard
  9
$DIMCLRD
 70
     0
  9
$DIMCLRE
 70
     0
  9
$DIMCLRT
 70
     0
  9
$DIMTFAC
 40
1.0
  9
$DIMGAP
 40
0.09
  9
$DIMJUST
 70
     0
  9
$DIMSD1
 70
     0
  9
$DIMSD2
 70
     0
  9
$DIMTOLJ
 70
     1
  9
$DIMTZIN
 70
     0
  9
$DIMALTZ
 70
     0
  9
$DIMALTTZ
 70
     0
  9
$DIMUPT
 70
     0
  9
$DIMDEC
 70
     4
  9
$DIMTDEC
 70
     4
  9
$DIMALTU
 70
     2
  9
$DIMALTTD
 70
     2
  9
$DIMTXSTY
  7
Standard
  9
$DIMAUNIT
 70
     0
  9
$DIMADEC
 70
     0
  9
$DIMALTRND
 40
0.0
  9
$DIMAZIN
 70
     0
  9
$DIMDSEP
 70
    46
  9
$DIMATFIT
 70
     3
  9
$DIMFRAC
 70
     0
  9
$DIMLDRBLK
  1

  9
$DIMLUNIT
 70
     2
  9
$DIMLWD
 70
    -2
  9
$DIMLWE
 70
    -2
  9
$DIMTMOVE
 70
     0
  9
$LUNITS
 70
     2
  9
$LUPREC
 70
     4
  9
$SKETCHINC
 40
0.1
  9
$FILLETRAD
 40
0.0
  9
$AUNITS
 70
     0
  9
$AUPREC
 70
     0
  9
$MENU
  1
.
  9
$ELEVATION
 40
0.0
  9
$PELEVATION
 40
0.0
  9
$THICKNESS
 40
0.0
  9
$LIMCHECK
 70
     0
  9
$CHAMFERA
 40
0.5
  9
$CHAMFERB
 40
0.5
  9
$CHAMFERC
 40
1.0
  9
$CHAMFERD
 40
0.0
  9
$SKPOLY
 70
     0
  9
$TDCREATE
 40
2452857.745022569
  9
$TDUCREATE
 40
2452857.911689236
  9
$TDUPDATE
 40
2452867.470337685
  9
$TDUUPDATE
 40
2452867.637004351
  9
$TDINDWG
 40
0.8780544792
  9
$TDUSRTIMER
 40
0.8780528588
  9
$USRTIMER
 70
     1
  9
$ANGBASE
 50
0.0
  9
$ANGDIR
 70
     0
  9
$PDMODE
 70
     0
  9
$PDSIZE
 40
0.0
  9
$PLINEWID
 40
0.0
  9
$SPLFRAME
 70
     0
  9
$SPLINETYPE
 70
     6
  9
$SPLINESEGS
 70
     8
  9
$HANDSEED
  5
C63
  9
$SURFTAB1
 70
     6
  9
$SURFTAB2
 70
     6
  9
$SURFTYPE
 70
     6
  9
$SURFU
 70
     6
  9
$SURFV
 70
     6
  9
$UCSBASE
  2

  9
$UCSNAME
  2

  9
$UCSORG
 10
0.0
 20
0.0
 30
0.0
  9
$UCSXDIR
 10
1.0
 20
0.0
 30
0.0
  9
$UCSYDIR
 10
0.0
 20
1.0
 30
0.0
  9
$UCSORTHOREF
  2

  9
$UCSORTHOVIEW
 70
     0
  9
$UCSORGTOP
 10
0.0
 20
0.0
 30
0.0
  9
$UCSORGBOTTOM
 10
0.0
 20
0.0
 30
0.0
  9
$UCSORGLEFT
 10
0.0
 20
0.0
 30
0.0
  9
$UCSORGRIGHT
 10
0.0
 20
0.0
 30
0.0
  9
$UCSORGFRONT
 10
0.0
 20
0.0
 30
0.0
  9
$UCSORGBACK
 10
0.0
 20
0.0
 30
0.0
  9
$PUCSBASE
  2

  9
$PUCSNAME
  2

  9
$PUCSORG
 10
0.0
 20
0.0
 30
0.0
  9
$PUCSXDIR
 10
1.0
 20
0.0
 30
0.0
  9
$PUCSYDIR
 10
0.0
 20
1.0
 30
0.0
  9
$PUCSORTHOREF
  2

  9
$PUCSORTHOVIEW
 70
     0
  9
$PUCSORGTOP
 10
0.0
 20
0.0
 30
0.0
  9
$PUCSORGBOTTOM
 10
0.0
 20
0.0
 30
0.0
  9
$PUCSORGLEFT
 10
0.0
 20
0.0
 30
0.0
  9
$PUCSORGRIGHT
 10
0.0
 20
0.0
 30
0.0
  9
$PUCSORGFRONT
 10
0.0
 20
0.0
 30
0.0
  9
$PUCSORGBACK
 10
0.0
 20
0.0
 30
0.0
  9
$USERI1
 70
     0
  9
$USERI2
 70
     0
  9
$USERI3
 70
     0
  9
$USERI4
 70
     0
  9
$USERI5
 70
     0
  9
$USERR1
 40
0.0
  9
$USERR2
 40
0.0
  9
$USERR3
 40
0.0
  9
$USERR4
 40
0.0
  9
$USERR5
 40
0.0
  9
$WORLDVIEW
 70
     1
  9
$SHADEDGE
 70
     3
  9
$SHADEDIF
 70
    70
  9
$TILEMODE
 70
     1
  9
$MAXACTVP
 70
    64
  9
$PINSBASE
 10
0.0
 20
0.0
 30
0.0
  9
$PLIMCHECK
 70
     0
  9
$PEXTMIN
 10
0.0
 20
0.0
 30
0.0
  9
$PEXTMAX
 10
0.0
 20
0.0
 30
0.0
  9
$PLIMMIN
 10
0.0
 20
0.0
  9
$PLIMMAX
 10
12.0
 20
9.0
  9
$UNITMODE
 70
     0
  9
$VISRETAIN
 70
     1
  9
$PLINEGEN
 70
     0
  9
$PSLTSCALE
 70
     1
  9
$TREEDEPTH
 70
  3020
  9
$CMLSTYLE
  2
Standard
  9
$CMLJUST
 70
     0
  9
$CMLSCALE
 40
1.0
  9
$PROXYGRAPHICS
 70
     1
  9
$MEASUREMENT
 70
     0
  9
$CELWEIGHT
370
    -1
  9
$ENDCAPS
280
     0
  9
$JOINSTYLE
280
     0
  9
$LWDISPLAY
290
     0
  9
$INSUNITS
 70
     1
  9
$HYPERLINKBASE
  1

  9
$STYLESHEET
  1
monochrome.ctb
  9
$XEDIT
290
     1
  9
$CEPSNTYPE
380
     0
  9
$PSTYLEMODE
290
     1
  9
$FINGERPRINTGUID
  2
{FDEAD576-A652-11D2-9A35-0060089B3A3F}
  9
$VERSIONGUID
  2
{27A76699-E8CD-446D-ADBD-2E13E78BD7C8}
  9
$EXTNAMES
290
     1
  9
$PSVPSCALE
 40
0.0
  9
$OLESTARTUP
290
     0
  0
ENDSEC
  0
SECTION
  2
CLASSES
  0
CLASS
  1
ACDBDICTIONARYWDFLT
  2
AcDbDictionaryWithDefault
  3
AutoCAD 2000
 90
        0
280
     0
281
     0
  0
CLASS
  1
ACDBPLACEHOLDER
  2
AcDbPlaceHolder
  3
AutoCAD 2000
 90
        0
280
     0
281
     0
  0
CLASS
  1
LAYOUT
  2
AcDbLayout
  3
AutoCAD 2000
 90
        0
280
     0
281
     0
  0
CLASS
  1
DICTIONARYVAR
  2
AcDbDictionaryVar
  3
AutoCAD 2000
 90
        0
280
     0
281
     0
  0
CLASS
  1
DIMASSOC
  2
AcDbDimAssoc
  3
"AcDbDimAssoc|Product Desc:     AcDim ARX App For Dimension|Company:          Autodesk, Inc.|WEB Address:      www.autodesk.com"
 90
        0
280
     0
281
     0
  0
ENDSEC
  0
SECTION
  2
TABLES
  0
TABLE
  2
VPORT
  5
8
330
0
100
AcDbSymbolTable
 70
     2
  0
VPORT
  5
C62
330
8
100
AcDbSymbolTableRecord
100
AcDbViewportTableRecord
  2
*Active
 70
     0
 10
0.0
 20
0.0
 11
1.0
 21
1.0
 12
11.69364952290867
 22
23.16966226908177
 13
0.0
 23
0.0
 14
0.5
 24
0.5
 15
0.5
 25
0.5
 16
0.0
 26
0.0
 36
1.0
 17
0.0
 27
0.0
 37
0.0
 40
14.66705951711301
 41
1.431119920713577
 42
50.0
 43
0.0
 44
0.0
 50
0.0
 51
0.0
 71
     0
 72
   100
 73
     1
 74
     3
 75
     0
 76
     0
 77
     0
 78
     0
281
     0
 65
     1
110
0.0
120
0.0
130
0.0
111
1.0
121
0.0
131
0.0
112
0.0
122
1.0
132
0.0
 79
     0
146
0.0
  0
ENDTAB
  0
TABLE
  2
LTYPE
  5
5
330
0
100
AcDbSymbolTable
 70
     2
  0
LTYPE
  5
14
330
5
100
AcDbSymbolTableRecord
100
AcDbLinetypeTableRecord
  2
ByBlock
 70
     0
  3

 72
    65
 73
     0
 40
0.0
  0
LTYPE
  5
15
330
5
100
AcDbSymbolTableRecord
100
AcDbLinetypeTableRecord
  2
ByLayer
 70
     0
  3

 72
    65
 73
     0
 40
0.0
  0
LTYPE
  5
16
330
5
100
AcDbSymbolTableRecord
100
AcDbLinetypeTableRecord
  2
Continuous
 70
     0
  3
Solid line
 72
    65
 73
     0
 40
0.0
  0
LTYPE
  5
88
330
5
100
AcDbSymbolTableRecord
100
AcDbLinetypeTableRecord
  2
HIDDEN
 70
     0
  3
Hidden __ __ __ __ __ __ __ __ __ __ __ __ __ _
 72
    65
 73
     2
 40
0.375
 49
0.25
 74
     0
 49
-0.125
 74
     0
  0
ENDTAB
  0
TABLE
  2
LAYER
  5
2
330
0
100
AcDbSymbolTable
 70
     3
  0
LAYER
  5
10
330
2
100
AcDbSymbolTableRecord
100
AcDbLayerTableRecord
  2
0
 70
     0
 62
     7
  6
Continuous
370
    -3
390
F
  0
LAYER
  5
9D
330
2
100
AcDbSymbolTableRecord
100
AcDbLayerTableRecord
  2
Defpoints
 70
     0
 62
     7
  6
Continuous
290
     0
370
    -3
390
F
  0
LAYER
  5
297
330
2
100
AcDbSymbolTableRecord
100
AcDbLayerTableRecord
  2
EXT
 70
     0
 62
    42
  6
Continuous
370
    -3
390
F
  0
ENDTAB
  0
TABLE
  2
STYLE
  5
3
330
0
100
AcDbSymbolTable
 70
     1
  0
STYLE
  5
11
330
3
100
AcDbSymbolTableRecord
100
AcDbTextStyleTableRecord
  2
Standard
 70
     0
 40
0.0
 41
1.0
 50
0.0
 71
     0
 42
0.1
  3
txt
  4

  0
ENDTAB
  0
TABLE
  2
VIEW
  5
6
330
0
100
AcDbSymbolTable
 70
     0
  0
ENDTAB
  0
TABLE
  2
UCS
  5
7
330
0
100
AcDbSymbolTable
 70
     0
  0
ENDTAB
  0
TABLE
  2
APPID
  5
9
330
0
100
AcDbSymbolTable
 70
     1
  0
APPID
  5
12
330
9
100
AcDbSymbolTableRecord
100
AcDbRegAppTableRecord
  2
ACAD
 70
     0
  0
ENDTAB
  0
TABLE
  2
DIMSTYLE
  5
A
330
0
100
AcDbSymbolTable
 70
     1
100
AcDbDimStyleTable
 71
     1
340
27
  0
DIMSTYLE
105
27
102
{ACAD_REACTORS
330
105
330
11F
330
13B
330
157
330
19F
330
246
330
265
330
171
330
601
330
6B7
330
6D1
330
6EC
330
71E
330
743
330
75D
330
777
330
7BD
330
7E2
330
7FE
330
84D
330
905
330
92C
330
969
330
989
330
9A4
330
9BE
330
9F7
330
9F4
330
A74
330
A08
330
A0D
330
A35
330
A4B
330
A51
330
A8A
330
B84
330
BC8
330
C03
330
C22
330
C43
102
}
330
A
100
AcDbSymbolTableRecord
100
AcDbDimStyleTableRecord
  2
Standard
 70
     0
340
11
  0
ENDTAB
  0
TABLE
  2
BLOCK_RECORD
  5
1
330
0
100
AcDbSymbolTable
 70
    41
  0
BLOCK_RECORD
  5
1F
330
1
100
AcDbSymbolTableRecord
100
AcDbBlockTableRecord
  2
*Model_Space
340
22
  0
BLOCK_RECORD
  5
58
330
1
100
AcDbSymbolTableRecord
100
AcDbBlockTableRecord
  2
*Paper_Space
340
59
  0
BLOCK_RECORD
  5
5D
330
1
100
AcDbSymbolTableRecord
100
AcDbBlockTableRecord
  2
*Paper_Space0
340
5E
  0
BLOCK_RECORD
  5
106
330
1
100
AcDbSymbolTableRecord
100
AcDbBlockTableRecord
  2
*D1
340
0
  0
BLOCK_RECORD
  5
120
330
1
100
AcDbSymbolTableRecord
100
AcDbBlockTableRecord
  2
*D2
340
0
  0
BLOCK_RECORD
  5
13C
330
1
100
AcDbSymbolTableRecord
100
AcDbBlockTableRecord
  2
*D3
340
0
  0
BLOCK_RECORD
  5
158
330
1
100
AcDbSymbolTableRecord
100
AcDbBlockTableRecord
  2
*D4
340
0
  0
BLOCK_RECORD
  5
172
330
1
100
AcDbSymbolTableRecord
100
AcDbBlockTableRecord
  2
*D5
340
0
  0
BLOCK_RECORD
  5
1A0
330
1
100
AcDbSymbolTableRecord
100
AcDbBlockTableRecord
  2
*D6
340
0
  0
BLOCK_RECORD
  5
247
330
1
100
AcDbSymbolTableRecord
100
AcDbBlockTableRecord
  2
*D7
340
0
  0
BLOCK_RECORD
  5
266
330
1
100
AcDbSymbolTableRecord
100
AcDbBlockTableRecord
  2
*D8
340
0
  0
BLOCK_RECORD
  5
609
330
1
100
AcDbSymbolTableRecord
100
AcDbBlockTableRecord
  2
*D9
340
0
  0
BLOCK_RECORD
  5
6B8
330
1
100
AcDbSymbolTableRecord
100
AcDbBlockTableRecord
  2
*D10
340
0
  0
BLOCK_RECORD
  5
6D2
330
1
100
AcDbSymbolTableRecord
100
AcDbBlockTableRecord
  2
*D11
340
0
  0
BLOCK_RECORD
  5
6ED
330
1
100
AcDbSymbolTableRecord
100
AcDbBlockTableRecord
  2
*D12
340
0
  0
BLOCK_RECORD
  5
71F
330
1
100
AcDbSymbolTableRecord
100
AcDbBlockTableRecord
  2
*D13
340
0
  0
BLOCK_RECORD
  5
744
330
1
100
AcDbSymbolTableRecord
100
AcDbBlockTableRecord
  2
*D14
340
0
  0
BLOCK_RECORD
  5
75E
330
1
100
AcDbSymbolTableRecord
100
AcDbBlockTableRecord
  2
*D15
340
0
  0
BLOCK_RECORD
  5
778
330
1
100
AcDbSymbolTableRecord
100
AcDbBlockTableRecord
  2
*D16
340
0
  0
BLOCK_RECORD
  5
7BE
330
1
100
AcDbSymbolTableRecord
100
AcDbBlockTableRecord
  2
*D17
340
0
  0
BLOCK_RECORD
  5
7E3
330
1
100
AcDbSymbolTableRecord
100
AcDbBlockTableRecord
  2
*D18
340
0
  0
BLOCK_RECORD
  5
7FF
330
1
100
AcDbSymbolTableRecord
100
AcDbBlockTableRecord
  2
*D19
340
0
  0
BLOCK_RECORD
  5
84E
330
1
100
AcDbSymbolTableRecord
100
AcDbBlockTableRecord
  2
*D20
340
0
  0
BLOCK_RECORD
  5
906
330
1
100
AcDbSymbolTableRecord
100
AcDbBlockTableRecord
  2
*D21
340
0
  0
BLOCK_RECORD
  5
92D
330
1
100
AcDbSymbolTableRecord
100
AcDbBlockTableRecord
  2
*D22
340
0
  0
BLOCK_RECORD
  5
96A
330
1
100
AcDbSymbolTableRecord
100
AcDbBlockTableRecord
  2
*D23
340
0
  0
BLOCK_RECORD
  5
98A
330
1
100
AcDbSymbolTableRecord
100
AcDbBlockTableRecord
  2
*D24
340
0
  0
BLOCK_RECORD
  5
9A5
330
1
100
AcDbSymbolTableRecord
100
AcDbBlockTableRecord
  2
*D25
340
0
  0
BLOCK_RECORD
  5
9BF
330
1
100
AcDbSymbolTableRecord
100
AcDbBlockTableRecord
  2
*D26
340
0
  0
BLOCK_RECORD
  5
AAE
330
1
100
AcDbSymbolTableRecord
100
AcDbBlockTableRecord
  2
*D27
340
0
  0
BLOCK_RECORD
  5
ABB
330
1
100
AcDbSymbolTableRecord
100
AcDbBlockTableRecord
  2
*D28
340
0
  0
BLOCK_RECORD
  5
AC8
330
1
100
AcDbSymbolTableRecord
100
AcDbBlockTableRecord
  2
*D29
340
0
  0
BLOCK_RECORD
  5
AD5
330
1
100
AcDbSymbolTableRecord
100
AcDbBlockTableRecord
  2
*D30
340
0
  0
BLOCK_RECORD
  5
B1D
330
1
100
AcDbSymbolTableRecord
100
AcDbBlockTableRecord
  2
*D31
340
0
  0
BLOCK_RECORD
  5
B2A
330
1
100
AcDbSymbolTableRecord
100
AcDbBlockTableRecord
  2
*D32
340
0
  0
BLOCK_RECORD
  5
B37
330
1
100
AcDbSymbolTableRecord
100
AcDbBlockTableRecord
  2
*D33
340
0
  0
BLOCK_RECORD
  5
B44
330
1
100
AcDbSymbolTableRecord
100
AcDbBlockTableRecord
  2
*D34
340
0
  0
BLOCK_RECORD
  5
B51
330
1
100
AcDbSymbolTableRecord
100
AcDbBlockTableRecord
  2
*D35
340
0
  0
BLOCK_RECORD
  5
B87
330
1
100
AcDbSymbolTableRecord
100
AcDbBlockTableRecord
  2
*D36
340
0
  0
BLOCK_RECORD
  5
BC9
330
1
100
AcDbSymbolTableRecord
100
AcDbBlockTableRecord
  2
*D37
340
0
  0
BLOCK_RECORD
  5
C04
330
1
100
AcDbSymbolTableRecord
100
AcDbBlockTableRecord
  2
*D38
340
0
  0
BLOCK_RECORD
  5
C23
330
1
100
AcDbSymbolTableRecord
100
AcDbBlockTableRecord
  2
*D39
340
0
  0
BLOCK_RECORD
  5
C44
330
1
100
AcDbSymbolTableRecord
100
AcDbBlockTableRecord
  2
*D40
340
0
  0
ENDTAB
  0
ENDSEC
  0
SECTION
  2
BLOCKS
  0
BLOCK
  5
20
330
1F
100
AcDbEntity
  8
0
100
AcDbBlockBegin
  2
*Model_Space
 70
     0
 10
0.0
 20
0.0
 30
0.0
  3
*Model_Space
  1

  0
ENDBLK
  5
21
330
1F
100
AcDbEntity
  8
0
100
AcDbBlockEnd
  0
BLOCK
  5
5A
330
58
100
AcDbEntity
 67
     1
  8
0
100
AcDbBlockBegin
  2
*Paper_Space
 70
     0
 10
0.0
 20
0.0
 30
0.0
  3
*Paper_Space
  1

  0
ENDBLK
  5
5B
330
58
100
AcDbEntity
 67
     1
  8
0
100
AcDbBlockEnd
  0
BLOCK
  5
5F
330
5D
100
AcDbEntity
  8
0
100
AcDbBlockBegin
  2
*Paper_Space0
 70
     0
 10
0.0
 20
0.0
 30
0.0
  3
*Paper_Space0
  1

  0
ENDBLK
  5
60
330
5D
100
AcDbEntity
  8
0
100
AcDbBlockEnd
  0
BLOCK
  5
111
330
106
100
AcDbEntity
  8
0
100
AcDbBlockBegin
  2
*D1
 70
     1
 10
0.0
 20
0.0
 30
0.0
  3
*D1
  1

  0
LINE
  5
8E6
330
106
100
AcDbEntity
  8
EXT
 62
     0
370
    -2
100
AcDbLine
 10
6.573182164656708
 20
11.5137250031803
 30
0.0
 11
5.723596228644
 21
11.5137250031803
 31
0.0
  0
LINE
  5
8E7
330
106
100
AcDbEntity
  8
EXT
 62
     0
370
    -2
100
AcDbLine
 10
6.573182164656708
 20
11.0137250031803
 30
0.0
 11
5.723596228644
 21
11.0137250031803
 31
0.0
  0
LINE
  5
8E8
330
106
100
AcDbEntity
  8
EXT
 62
     0
370
    -2
100
AcDbLine
 10
5.903596228644
 20
11.6937250031803
 30
0.0
 11
5.903596228644
 21
11.8737250031803
 31
0.0
  0
LINE
  5
8E9
330
106
100
AcDbEntity
  8
EXT
 62
     0
370
    -2
100
AcDbLine
 10
5.903596228644
 20
10.83372500318031
 30
0.0
 11
5.903596228644
 21
10.6537250031803
 31
0.0
  0
SOLID
  5
8EA
330
106
100
AcDbEntity
  8
EXT
 62
     0
100
AcDbTrace
 10
5.873596228643999
 20
11.6937250031803
 30
0.0
 11
5.933596228644
 21
11.6937250031803
 31
0.0
 12
5.903596228644
 22
11.5137250031803
 32
0.0
 13
5.903596228644
 23
11.5137250031803
 33
0.0
  0
SOLID
  5
8EB
330
106
100
AcDbEntity
  8
EXT
 62
     0
100
AcDbTrace
 10
5.873596228643999
 20
10.83372500318031
 30
0.0
 11
5.933596228644
 21
10.83372500318031
 31
0.0
 12
5.903596228644
 22
11.0137250031803
 32
0.0
 13
5.903596228644
 23
11.0137250031803
 33
0.0
  0
MTEXT
  5
8EC
330
106
100
AcDbEntity
  8
EXT
 62
     0
100
AcDbMText
 10
5.903596228643998
 20
11.26372500318031
 30
0.0
 40
0.1
 41
0.0
 71
     5
 72
     1
  1
\A1;0.5000
 73
     1
 44
1.0
  0
POINT
  5
8ED
330
106
100
AcDbEntity
  8
Defpoints
 62
     0
100
AcDbPoint
 10
6.635682164656708
 20
11.5137250031803
 30
0.0
  0
POINT
  5
8EE
330
106
100
AcDbEntity
  8
Defpoints
 62
     0
100
AcDbPoint
 10
6.635682164656708
 20
11.0137250031803
 30
0.0
  0
POINT
  5
8EF
330
106
100
AcDbEntity
  8
Defpoints
 62
     0
100
AcDbPoint
 10
5.903596228644
 20
11.0137250031803
 30
0.0
  0
ENDBLK
  5
112
330
106
100
AcDbEntity
  8
0
100
AcDbBlockEnd
  0
BLOCK
  5
12C
330
120
100
AcDbEntity
  8
0
100
AcDbBlockBegin
  2
*D2
 70
     1
 10
0.0
 20
0.0
 30
0.0
  3
*D2
  1

  0
LINE
  5
8F0
330
120
100
AcDbEntity
  8
EXT
 62
     0
370
    -2
100
AcDbLine
 10
9.617058874329529
 20
11.5762250031803
 30
0.0
 11
9.069689066515614
 21
11.5762250031803
 31
0.0
  0
LINE
  5
8F1
330
120
100
AcDbEntity
  8
EXT
 62
     0
370
    -2
100
AcDbLine
 10
9.617058874329529
 20
10.9512250031803
 30
0.0
 11
9.069689066515614
 21
10.9512250031803
 31
0.0
  0
LINE
  5
8F2
330
120
100
AcDbEntity
  8
EXT
 62
     0
370
    -2
100
AcDbLine
 10
9.249689066515614
 20
11.3962250031803
 30
0.0
 11
9.249689066515614
 21
11.1312250031803
 31
0.0
  0
LINE
  5
8F3
330
120
100
AcDbEntity
  8
EXT
 62
     0
370
    -2
100
AcDbLine
 10
9.249689066515614
 20
10.9512250031803
 30
0.0
 11
9.249689066515614
 21
10.7712250031803
 31
0.0
  0
LINE
  5
8F4
330
120
100
AcDbEntity
  8
EXT
 62
     0
370
    -2
100
AcDbLine
 10
9.249689066515614
 20
10.7712250031803
 30
0.0
 11
9.069689066515614
 21
10.7712250031803
 31
0.0
  0
SOLID
  5
8F5
330
120
100
AcDbEntity
  8
EXT
 62
     0
100
AcDbTrace
 10
9.219689066515615
 20
11.3962250031803
 30
0.0
 11
9.279689066515613
 21
11.3962250031803
 31
0.0
 12
9.249689066515614
 22
11.5762250031803
 32
0.0
 13
9.249689066515614
 23
11.5762250031803
 33
0.0
  0
SOLID
  5
8F6
330
120
100
AcDbEntity
  8
EXT
 62
     0
100
AcDbTrace
 10
9.219689066515615
 20
11.1312250031803
 30
0.0
 11
9.279689066515613
 21
11.1312250031803
 31
0.0
 12
9.249689066515614
 22
10.9512250031803
 32
0.0
 13
9.249689066515614
 23
10.9512250031803
 33
0.0
  0
MTEXT
  5
8F7
330
120
100
AcDbEntity
  8
EXT
 62
     0
100
AcDbMText
 10
8.746355733182278
 20
10.7712250031803
 30
0.0
 40
0.1
 41
0.0
 71
     5
 72
     1
  1
\A1;0.6250
 73
     1
 44
1.0
  0
POINT
  5
8F8
330
120
100
AcDbEntity
  8
Defpoints
 62
     0
100
AcDbPoint
 10
9.679558874329529
 20
11.5762250031803
 30
0.0
  0
POINT
  5
8F9
330
120
100
AcDbEntity
  8
Defpoints
 62
     0
100
AcDbPoint
 10
9.679558874329529
 20
10.9512250031803
 30
0.0
  0
POINT
  5
8FA
330
120
100
AcDbEntity
  8
Defpoints
 62
     0
100
AcDbPoint
 10
9.249689066515614
 20
10.9512250031803
 30
0.0
  0
ENDBLK
  5
12D
330
120
100
AcDbEntity
  8
0
100
AcDbBlockEnd
  0
BLOCK
  5
148
330
13C
100
AcDbEntity
  8
0
100
AcDbBlockBegin
  2
*D3
 70
     1
 10
0.0
 20
0.0
 30
0.0
  3
*D3
  1

  0
LINE
  5
8D1
330
13C
100
AcDbEntity
  8
EXT
 62
     0
370
    -2
100
AcDbLine
 10
10.49716749448737
 20
11.5983750031803
 30
0.0
 11
10.84482305745565
 21
11.5983750031803
 31
0.0
  0
LINE
  5
8D2
330
13C
100
AcDbEntity
  8
EXT
 62
     0
370
    -2
100
AcDbLine
 10
10.49716749448737
 20
10.9290750031803
 30
0.0
 11
10.84482305745565
 21
10.9290750031803
 31
0.0
  0
LINE
  5
8D3
330
13C
100
AcDbEntity
  8
EXT
 62
     0
370
    -2
100
AcDbLine
 10
10.66482305745565
 20
11.4183750031803
 30
0.0
 11
10.66482305745565
 21
11.1090750031803
 31
0.0
  0
LINE
  5
8D4
330
13C
100
AcDbEntity
  8
EXT
 62
     0
370
    -2
100
AcDbLine
 10
10.66482305745565
 20
10.9290750031803
 30
0.0
 11
10.66482305745565
 21
10.7490750031803
 31
0.0
  0
LINE
  5
8D5
330
13C
100
AcDbEntity
  8
EXT
 62
     0
370
    -2
100
AcDbLine
 10
10.66482305745565
 20
10.7490750031803
 30
0.0
 11
10.48482305745565
 21
10.7490750031803
 31
0.0
  0
SOLID
  5
8D6
330
13C
100
AcDbEntity
  8
EXT
 62
     0
100
AcDbTrace
 10
10.63482305745565
 20
11.4183750031803
 30
0.0
 11
10.69482305745565
 21
11.4183750031803
 31
0.0
 12
10.66482305745565
 22
11.5983750031803
 32
0.0
 13
10.66482305745565
 23
11.5983750031803
 33
0.0
  0
SOLID
  5
8D7
330
13C
100
AcDbEntity
  8
EXT
 62
     0
100
AcDbTrace
 10
10.63482305745565
 20
11.1090750031803
 30
0.0
 11
10.69482305745565
 21
11.1090750031803
 31
0.0
 12
10.66482305745565
 22
10.9290750031803
 32
0.0
 13
10.66482305745565
 23
10.9290750031803
 33
0.0
  0
MTEXT
  5
8D8
330
13C
100
AcDbEntity
  8
EXT
 62
     0
100
AcDbMText
 10
10.15315639078898
 20
10.7490750031803
 30
0.0
 40
0.1
 41
0.0
 71
     5
 72
     1
  1
\A1;0.6693
 73
     1
 44
1.0
  0
POINT
  5
8D9
330
13C
100
AcDbEntity
  8
Defpoints
 62
     0
100
AcDbPoint
 10
10.43466749448737
 20
11.5983750031803
 30
0.0
  0
POINT
  5
8DA
330
13C
100
AcDbEntity
  8
Defpoints
 62
     0
100
AcDbPoint
 10
10.43466749448737
 20
10.9290750031803
 30
0.0
  0
POINT
  5
8DB
330
13C
100
AcDbEntity
  8
Defpoints
 62
     0
100
AcDbPoint
 10
10.66482305745565
 20
10.9290750031803
 30
0.0
  0
ENDBLK
  5
149
330
13C
100
AcDbEntity
  8
0
100
AcDbBlockEnd
  0
BLOCK
  5
163
330
158
100
AcDbEntity
  8
0
100
AcDbBlockBegin
  2
*D4
 70
     1
 10
0.0
 20
0.0
 30
0.0
  3
*D4
  1

  0
LINE
  5
8A9
330
158
100
AcDbEntity
  8
EXT
 62
     0
370
    -2
100
AcDbLine
 10
12.22631540656618
 20
11.7233750031803
 30
0.0
 11
11.39759096425037
 21
11.7233750031803
 31
0.0
  0
LINE
  5
8AA
330
158
100
AcDbEntity
  8
EXT
 62
     0
370
    -2
100
AcDbLine
 10
11.85731540656618
 20
10.8040750031803
 30
0.0
 11
11.39759096425037
 21
10.8040750031803
 31
0.0
  0
LINE
  5
8AB
330
158
100
AcDbEntity
  8
EXT
 62
     0
370
    -2
100
AcDbLine
 10
11.57759096425037
 20
11.5433750031803
 30
0.0
 11
11.57759096425037
 21
11.4037250031803
 31
0.0
  0
LINE
  5
8AC
330
158
100
AcDbEntity
  8
EXT
 62
     0
370
    -2
100
AcDbLine
 10
11.57759096425037
 20
10.9840750031803
 30
0.0
 11
11.57759096425037
 21
11.1237250031803
 31
0.0
  0
SOLID
  5
8AD
330
158
100
AcDbEntity
  8
EXT
 62
     0
100
AcDbTrace
 10
11.54759096425037
 20
11.5433750031803
 30
0.0
 11
11.60759096425037
 21
11.5433750031803
 31
0.0
 12
11.57759096425037
 22
11.7233750031803
 32
0.0
 13
11.57759096425037
 23
11.7233750031803
 33
0.0
  0
SOLID
  5
8AE
330
158
100
AcDbEntity
  8
EXT
 62
     0
100
AcDbTrace
 10
11.54759096425037
 20
10.9840750031803
 30
0.0
 11
11.60759096425037
 21
10.9840750031803
 31
0.0
 12
11.57759096425037
 22
10.8040750031803
 32
0.0
 13
11.57759096425037
 23
10.8040750031803
 33
0.0
  0
MTEXT
  5
8AF
330
158
100
AcDbEntity
  8
EXT
 62
     0
100
AcDbMText
 10
11.57759096425037
 20
11.2637250031803
 30
0.0
 40
0.1
 41
0.0
 71
     5
 72
     1
  1
\A1;0.9193
 73
     1
 44
1.0
  0
POINT
  5
8B0
330
158
100
AcDbEntity
  8
Defpoints
 62
     0
100
AcDbPoint
 10
12.28881540656618
 20
11.7233750031803
 30
0.0
  0
POINT
  5
8B1
330
158
100
AcDbEntity
  8
Defpoints
 62
     0
100
AcDbPoint
 10
11.91981540656618
 20
10.8040750031803
 30
0.0
  0
POINT
  5
8B2
330
158
100
AcDbEntity
  8
Defpoints
 62
     0
100
AcDbPoint
 10
11.57759096425037
 20
10.8040750031803
 30
0.0
  0
ENDBLK
  5
164
330
158
100
AcDbEntity
  8
0
100
AcDbBlockEnd
  0
BLOCK
  5
17D
330
172
100
AcDbEntity
  8
0
100
AcDbBlockBegin
  2
*D5
 70
     1
 10
0.0
 20
0.0
 30
0.0
  3
*D5
  1

  0
LINE
  5
91F
330
172
100
AcDbEntity
  8
EXT
 62
     0
370
    -2
100
AcDbLine
 10
11.28203062664807
 20
10.51634824763661
 30
0.0
 11
11.28203062664807
 21
9.06497897950372
 31
0.0
  0
LINE
  5
920
330
172
100
AcDbEntity
  8
EXT
 62
     0
370
    -2
100
AcDbLine
 10
12.03203062664807
 20
10.41519824763661
 30
0.0
 11
12.03203062664807
 21
9.06497897950372
 31
0.0
  0
LINE
  5
921
330
172
100
AcDbEntity
  8
EXT
 62
     0
370
    -2
100
AcDbLine
 10
11.10203062664807
 20
9.24497897950372
 30
0.0
 11
10.92203062664807
 21
9.24497897950372
 31
0.0
  0
LINE
  5
922
330
172
100
AcDbEntity
  8
EXT
 62
     0
370
    -2
100
AcDbLine
 10
12.21203062664807
 20
9.24497897950372
 30
0.0
 11
12.39203062664807
 21
9.24497897950372
 31
0.0
  0
SOLID
  5
923
330
172
100
AcDbEntity
  8
EXT
 62
     0
100
AcDbTrace
 10
11.10203062664807
 20
9.274978979503719
 30
0.0
 11
11.10203062664807
 21
9.214978979503721
 31
0.0
 12
11.28203062664807
 22
9.24497897950372
 32
0.0
 13
11.28203062664807
 23
9.24497897950372
 33
0.0
  0
SOLID
  5
924
330
172
100
AcDbEntity
  8
EXT
 62
     0
100
AcDbTrace
 10
12.21203062664807
 20
9.274978979503719
 30
0.0
 11
12.21203062664807
 21
9.214978979503721
 31
0.0
 12
12.03203062664807
 22
9.24497897950372
 32
0.0
 13
12.03203062664807
 23
9.24497897950372
 33
0.0
  0
MTEXT
  5
925
330
172
100
AcDbEntity
  8
EXT
 62
     0
100
AcDbMText
 10
11.65703062664807
 20
9.24497897950372
 30
0.0
 40
0.1
 41
0.0
 71
     5
 72
     1
  1
\A1;0.7500
 73
     1
 44
1.0
  0
POINT
  5
926
330
172
100
AcDbEntity
  8
Defpoints
 62
     0
100
AcDbPoint
 10
11.28203062664807
 20
10.57884824763661
 30
0.0
  0
POINT
  5
927
330
172
100
AcDbEntity
  8
Defpoints
 62
     0
100
AcDbPoint
 10
12.03203062664807
 20
10.47769824763661
 30
0.0
  0
POINT
  5
928
330
172
100
AcDbEntity
  8
Defpoints
 62
     0
100
AcDbPoint
 10
12.03203062664807
 20
9.24497897950372
 30
0.0
  0
ENDBLK
  5
17E
330
172
100
AcDbEntity
  8
0
100
AcDbBlockEnd
  0
BLOCK
  5
1AB
330
1A0
100
AcDbEntity
  8
0
100
AcDbBlockBegin
  2
*D6
 70
     1
 10
0.0
 20
0.0
 30
0.0
  3
*D6
  1

  0
LINE
  5
895
330
1A0
100
AcDbEntity
  8
EXT
 62
     0
370
    -2
100
AcDbLine
 10
12.03203062664807
 20
11.6847250031803
 30
0.0
 11
12.03203062664807
 21
13.01862608660464
 31
0.0
  0
LINE
  5
896
330
1A0
100
AcDbEntity
  8
EXT
 62
     0
370
    -2
100
AcDbLine
 10
15.03203062664807
 20
11.6847250031803
 30
0.0
 11
15.03203062664807
 21
13.01862608660464
 31
0.0
  0
LINE
  5
897
330
1A0
100
AcDbEntity
  8
EXT
 62
     0
370
    -2
100
AcDbLine
 10
12.21203062664807
 20
12.83862608660464
 30
0.0
 11
13.22536395998141
 21
12.83862608660464
 31
0.0
  0
LINE
  5
898
330
1A0
100
AcDbEntity
  8
EXT
 62
     0
370
    -2
100
AcDbLine
 10
14.85203062664807
 20
12.83862608660464
 30
0.0
 11
13.83869729331474
 21
12.83862608660464
 31
0.0
  0
SOLID
  5
899
330
1A0
100
AcDbEntity
  8
EXT
 62
     0
100
AcDbTrace
 10
12.21203062664807
 20
12.86862608660464
 30
0.0
 11
12.21203062664807
 21
12.80862608660464
 31
0.0
 12
12.03203062664807
 22
12.83862608660464
 32
0.0
 13
12.03203062664807
 23
12.83862608660464
 33
0.0
  0
SOLID
  5
89A
330
1A0
100
AcDbEntity
  8
EXT
 62
     0
100
AcDbTrace
 10
14.85203062664807
 20
12.86862608660464
 30
0.0
 11
14.85203062664807
 21
12.80862608660464
 31
0.0
 12
15.03203062664807
 22
12.83862608660464
 32
0.0
 13
15.03203062664807
 23
12.83862608660464
 33
0.0
  0
MTEXT
  5
89B
330
1A0
100
AcDbEntity
  8
EXT
 62
     0
100
AcDbMText
 10
13.53203062664807
 20
12.83862608660464
 30
0.0
 40
0.1
 41
0.0
 71
     5
 72
     1
  1
\A1;3.0000
 73
     1
 44
1.0
  0
POINT
  5
89C
330
1A0
100
AcDbEntity
  8
Defpoints
 62
     0
100
AcDbPoint
 10
12.03203062664807
 20
11.6222250031803
 30
0.0
  0
POINT
  5
89D
330
1A0
100
AcDbEntity
  8
Defpoints
 62
     0
100
AcDbPoint
 10
15.03203062664807
 20
11.6222250031803
 30
0.0
  0
POINT
  5
89E
330
1A0
100
AcDbEntity
  8
Defpoints
 62
     0
100
AcDbPoint
 10
15.03203062664807
 20
12.83862608660464
 30
0.0
  0
ENDBLK
  5
1AC
330
1A0
100
AcDbEntity
  8
0
100
AcDbBlockEnd
  0
BLOCK
  5
252
330
247
100
AcDbEntity
  8
0
100
AcDbBlockBegin
  2
*D7
 70
     1
 10
0.0
 20
0.0
 30
0.0
  3
*D7
  1

  0
LINE
  5
8BD
330
247
100
AcDbEntity
  8
EXT
 62
     0
370
    -2
100
AcDbLine
 10
15.06328062664807
 20
12.0472250031803
 30
0.0
 11
15.66589730197605
 21
12.0472250031803
 31
0.0
  0
LINE
  5
8BE
330
247
100
AcDbEntity
  8
EXT
 62
     0
370
    -2
100
AcDbLine
 10
15.06328062664807
 20
10.4802250031803
 30
0.0
 11
15.66589730197605
 21
10.4802250031803
 31
0.0
  0
LINE
  5
8BF
330
247
100
AcDbEntity
  8
EXT
 62
     0
370
    -2
100
AcDbLine
 10
15.57589730197605
 20
11.9572250031803
 30
0.0
 11
15.57589730197605
 21
11.3537250031803
 31
0.0
  0
LINE
  5
8C0
330
247
100
AcDbEntity
  8
EXT
 62
     0
370
    -2
100
AcDbLine
 10
15.57589730197605
 20
10.5702250031803
 30
0.0
 11
15.57589730197605
 21
11.1737250031803
 31
0.0
  0
SOLID
  5
8C1
330
247
100
AcDbEntity
  8
EXT
 62
     0
100
AcDbTrace
 10
15.56089730197605
 20
11.9572250031803
 30
0.0
 11
15.59089730197605
 21
11.9572250031803
 31
0.0
 12
15.57589730197605
 22
12.0472250031803
 32
0.0
 13
15.57589730197605
 23
12.0472250031803
 33
0.0
  0
SOLID
  5
8C2
330
247
100
AcDbEntity
  8
EXT
 62
     0
100
AcDbTrace
 10
15.56089730197605
 20
10.5702250031803
 30
0.0
 11
15.59089730197605
 21
10.5702250031803
 31
0.0
 12
15.57589730197605
 22
10.4802250031803
 32
0.0
 13
15.57589730197605
 23
10.4802250031803
 33
0.0
  0
MTEXT
  5
8C3
330
247
100
AcDbEntity
  8
EXT
 62
     0
100
AcDbMText
 10
15.57589730197605
 20
11.2637250031803
 30
0.0
 40
0.09
 41
0.0
 71
     5
 72
     1
  1
\A1;1.5670
 73
     1
 44
1.0
  0
POINT
  5
8C4
330
247
100
AcDbEntity
  8
Defpoints
 62
     0
100
AcDbPoint
 10
15.03203062664807
 20
12.0472250031803
 30
0.0
  0
POINT
  5
8C5
330
247
100
AcDbEntity
  8
Defpoints
 62
     0
100
AcDbPoint
 10
15.03203062664807
 20
10.4802250031803
 30
0.0
  0
POINT
  5
8C6
330
247
100
AcDbEntity
  8
Defpoints
 62
     0
100
AcDbPoint
 10
15.57589730197605
 20
10.4802250031803
 30
0.0
  0
ENDBLK
  5
253
330
247
100
AcDbEntity
  8
0
100
AcDbBlockEnd
  0
BLOCK
  5
271
330
266
100
AcDbEntity
  8
0
100
AcDbBlockBegin
  2
*D8
 70
     1
 10
0.0
 20
0.0
 30
0.0
  3
*D8
  1

  0
LINE
  5
88B
330
266
100
AcDbEntity
  8
EXT
 62
     0
370
    -2
100
AcDbLine
 10
13.69248509744075
 20
11.6222250031803
 30
0.0
 11
13.84255707545049
 21
11.6222250031803
 31
0.0
  0
LINE
  5
88C
330
266
100
AcDbEntity
  8
EXT
 62
     0
370
    -2
100
AcDbLine
 10
13.69248509744075
 20
10.9052250031803
 30
0.0
 11
13.84255707545049
 21
10.9052250031803
 31
0.0
  0
LINE
  5
88D
330
266
100
AcDbEntity
  8
EXT
 62
     0
370
    -2
100
AcDbLine
 10
13.75255707545049
 20
11.5322250031803
 30
0.0
 11
13.75255707545049
 21
11.3537250031803
 31
0.0
  0
LINE
  5
88E
330
266
100
AcDbEntity
  8
EXT
 62
     0
370
    -2
100
AcDbLine
 10
13.75255707545049
 20
10.9952250031803
 30
0.0
 11
13.75255707545049
 21
11.1737250031803
 31
0.0
  0
SOLID
  5
88F
330
266
100
AcDbEntity
  8
EXT
 62
     0
100
AcDbTrace
 10
13.73755707545049
 20
11.5322250031803
 30
0.0
 11
13.7675570754505
 21
11.5322250031803
 31
0.0
 12
13.75255707545049
 22
11.6222250031803
 32
0.0
 13
13.75255707545049
 23
11.6222250031803
 33
0.0
  0
SOLID
  5
890
330
266
100
AcDbEntity
  8
EXT
 62
     0
100
AcDbTrace
 10
13.73755707545049
 20
10.9952250031803
 30
0.0
 11
13.7675570754505
 21
10.9952250031803
 31
0.0
 12
13.75255707545049
 22
10.9052250031803
 32
0.0
 13
13.75255707545049
 23
10.9052250031803
 33
0.0
  0
MTEXT
  5
891
330
266
100
AcDbEntity
  8
EXT
 62
     0
100
AcDbMText
 10
13.75255707545049
 20
11.2637250031803
 30
0.0
 40
0.09
 41
0.0
 71
     5
 72
     1
  1
\A1;0.7170
 73
     1
 44
1.0
  0
POINT
  5
892
330
266
100
AcDbEntity
  8
Defpoints
 62
     0
100
AcDbPoint
 10
13.66123509744075
 20
11.6222250031803
 30
0.0
  0
POINT
  5
893
330
266
100
AcDbEntity
  8
Defpoints
 62
     0
100
AcDbPoint
 10
13.66123509744075
 20
10.9052250031803
 30
0.0
  0
POINT
  5
894
330
266
100
AcDbEntity
  8
Defpoints
 62
     0
100
AcDbPoint
 10
13.75255707545049
 20
10.9052250031803
 30
0.0
  0
ENDBLK
  5
272
330
266
100
AcDbEntity
  8
0
100
AcDbBlockEnd
  0
BLOCK
  5
614
330
609
100
AcDbEntity
  8
0
100
AcDbBlockBegin
  2
*D9
 70
     1
 10
0.0
 20
0.0
 30
0.0
  3
*D9
  1

  0
LINE
  5
695
330
609
100
AcDbEntity
  8
EXT
 62
     0
370
    -2
100
AcDbLine
 10
15.08053149069987
 20
16.51339016385539
 30
0.0
 11
15.23060346870961
 21
16.51339016385539
 31
0.0
  0
LINE
  5
696
330
609
100
AcDbEntity
  8
EXT
 62
     0
370
    -2
100
AcDbLine
 10
15.08053149069987
 20
15.79639016385539
 30
0.0
 11
15.23060346870961
 21
15.79639016385539
 31
0.0
  0
LINE
  5
697
330
609
100
AcDbEntity
  8
EXT
 62
     0
370
    -2
100
AcDbLine
 10
15.14060346870961
 20
16.42339016385539
 30
0.0
 11
15.14060346870961
 21
16.24489016385539
 31
0.0
  0
LINE
  5
698
330
609
100
AcDbEntity
  8
EXT
 62
     0
370
    -2
100
AcDbLine
 10
15.14060346870961
 20
15.88639016385539
 30
0.0
 11
15.14060346870961
 21
16.06489016385539
 31
0.0
  0
SOLID
  5
699
330
609
100
AcDbEntity
  8
EXT
 62
     0
100
AcDbTrace
 10
15.12560346870961
 20
16.42339016385539
 30
0.0
 11
15.15560346870961
 21
16.42339016385539
 31
0.0
 12
15.14060346870961
 22
16.51339016385539
 32
0.0
 13
15.14060346870961
 23
16.51339016385539
 33
0.0
  0
SOLID
  5
69A
330
609
100
AcDbEntity
  8
EXT
 62
     0
100
AcDbTrace
 10
15.12560346870961
 20
15.88639016385539
 30
0.0
 11
15.15560346870961
 21
15.88639016385539
 31
0.0
 12
15.14060346870961
 22
15.79639016385539
 32
0.0
 13
15.14060346870961
 23
15.79639016385539
 33
0.0
  0
MTEXT
  5
69B
330
609
100
AcDbEntity
  8
EXT
 62
     0
100
AcDbMText
 10
15.14060346870961
 20
16.15489016385539
 30
0.0
 40
0.09
 41
0.0
 71
     5
 72
     1
  1
\A1;0.7170
 73
     1
 44
1.0
  0
POINT
  5
69C
330
609
100
AcDbEntity
  8
Defpoints
 62
     0
100
AcDbPoint
 10
15.04928149069987
 20
16.51339016385539
 30
0.0
  0
POINT
  5
69D
330
609
100
AcDbEntity
  8
Defpoints
 62
     0
100
AcDbPoint
 10
15.04928149069987
 20
15.79639016385539
 30
0.0
  0
POINT
  5
69E
330
609
100
AcDbEntity
  8
Defpoints
 62
     0
100
AcDbPoint
 10
15.14060346870961
 20
15.79639016385539
 30
0.0
  0
ENDBLK
  5
615
330
609
100
AcDbEntity
  8
0
100
AcDbBlockEnd
  0
BLOCK
  5
6C3
330
6B8
100
AcDbEntity
  8
0
100
AcDbBlockBegin
  2
*D10
 70
     1
 10
0.0
 20
0.0
 30
0.0
  3
*D10
  1

  0
LINE
  5
7D7
330
6B8
100
AcDbEntity
  8
EXT
 62
     0
370
    -2
100
AcDbLine
 10
6.643207415454691
 20
16.12364016385539
 30
0.0
 11
6.643207415454691
 21
15.9305853807046
 31
0.0
  0
LINE
  5
7D8
330
6B8
100
AcDbEntity
  8
EXT
 62
     0
370
    -2
100
AcDbLine
 10
7.643207415454691
 20
16.12364016385539
 30
0.0
 11
7.643207415454691
 21
15.9305853807046
 31
0.0
  0
LINE
  5
7D9
330
6B8
100
AcDbEntity
  8
EXT
 62
     0
370
    -2
100
AcDbLine
 10
6.733207415454691
 20
16.0205853807046
 30
0.0
 11
6.918207415454691
 21
16.0205853807046
 31
0.0
  0
LINE
  5
7DA
330
6B8
100
AcDbEntity
  8
EXT
 62
     0
370
    -2
100
AcDbLine
 10
7.553207415454691
 20
16.0205853807046
 30
0.0
 11
7.368207415454691
 21
16.0205853807046
 31
0.0
  0
SOLID
  5
7DB
330
6B8
100
AcDbEntity
  8
EXT
 62
     0
100
AcDbTrace
 10
6.733207415454691
 20
16.0355853807046
 30
0.0
 11
6.733207415454691
 21
16.0055853807046
 31
0.0
 12
6.643207415454691
 22
16.0205853807046
 32
0.0
 13
6.643207415454691
 23
16.0205853807046
 33
0.0
  0
SOLID
  5
7DC
330
6B8
100
AcDbEntity
  8
EXT
 62
     0
100
AcDbTrace
 10
7.553207415454691
 20
16.0355853807046
 30
0.0
 11
7.553207415454691
 21
16.0055853807046
 31
0.0
 12
7.643207415454691
 22
16.0205853807046
 32
0.0
 13
7.643207415454691
 23
16.0205853807046
 33
0.0
  0
MTEXT
  5
7DD
330
6B8
100
AcDbEntity
  8
EXT
 62
     0
100
AcDbMText
 10
7.143207415454691
 20
16.0205853807046
 30
0.0
 40
0.09
 41
0.0
 71
     5
 72
     1
  1
\A1;1.0000
 73
     1
 44
1.0
  0
POINT
  5
7DE
330
6B8
100
AcDbEntity
  8
Defpoints
 62
     0
100
AcDbPoint
 10
6.643207415454691
 20
16.15489016385539
 30
0.0
  0
POINT
  5
7DF
330
6B8
100
AcDbEntity
  8
Defpoints
 62
     0
100
AcDbPoint
 10
7.643207415454691
 20
16.15489016385539
 30
0.0
  0
POINT
  5
7E0
330
6B8
100
AcDbEntity
  8
Defpoints
 62
     0
100
AcDbPoint
 10
7.643207415454691
 20
16.0205853807046
 30
0.0
  0
ENDBLK
  5
6C4
330
6B8
100
AcDbEntity
  8
0
100
AcDbBlockEnd
  0
BLOCK
  5
6DD
330
6D2
100
AcDbEntity
  8
0
100
AcDbBlockBegin
  2
*D11
 70
     1
 10
0.0
 20
0.0
 30
0.0
  3
*D11
  1

  0
LINE
  5
6E0
330
6D2
100
AcDbEntity
  8
EXT
 62
     0
370
    -2
100
AcDbLine
 10
7.643207415454691
 20
15.47648424545735
 30
0.0
 11
7.643207415454691
 21
14.68027565640881
 31
0.0
  0
LINE
  5
6E1
330
6D2
100
AcDbEntity
  8
EXT
 62
     0
370
    -2
100
AcDbLine
 10
9.643207415454691
 20
15.47648424545735
 30
0.0
 11
9.643207415454691
 21
14.68027565640881
 31
0.0
  0
LINE
  5
6E2
330
6D2
100
AcDbEntity
  8
EXT
 62
     0
370
    -2
100
AcDbLine
 10
7.733207415454691
 20
14.77027565640881
 30
0.0
 11
8.403207415454691
 21
14.77027565640881
 31
0.0
  0
LINE
  5
6E3
330
6D2
100
AcDbEntity
  8
EXT
 62
     0
370
    -2
100
AcDbLine
 10
9.553207415454691
 20
14.77027565640881
 30
0.0
 11
8.883207415454691
 21
14.77027565640881
 31
0.0
  0
SOLID
  5
6E4
330
6D2
100
AcDbEntity
  8
EXT
 62
     0
100
AcDbTrace
 10
7.733207415454691
 20
14.78527565640881
 30
0.0
 11
7.733207415454691
 21
14.75527565640881
 31
0.0
 12
7.643207415454691
 22
14.77027565640881
 32
0.0
 13
7.643207415454691
 23
14.77027565640881
 33
0.0
  0
SOLID
  5
6E5
330
6D2
100
AcDbEntity
  8
EXT
 62
     0
100
AcDbTrace
 10
9.553207415454691
 20
14.78527565640881
 30
0.0
 11
9.553207415454691
 21
14.75527565640881
 31
0.0
 12
9.643207415454691
 22
14.77027565640881
 32
0.0
 13
9.643207415454691
 23
14.77027565640881
 33
0.0
  0
MTEXT
  5
6E6
330
6D2
100
AcDbEntity
  8
EXT
 62
     0
100
AcDbMText
 10
8.643207415454691
 20
14.77027565640881
 30
0.0
 40
0.09
 41
0.0
 71
     5
 72
     1
  1
\A1;2.0000
 73
     1
 44
1.0
  0
POINT
  5
6E7
330
6D2
100
AcDbEntity
  8
Defpoints
 62
     0
100
AcDbPoint
 10
7.643207415454691
 20
15.50773424545735
 30
0.0
  0
POINT
  5
6E8
330
6D2
100
AcDbEntity
  8
Defpoints
 62
     0
100
AcDbPoint
 10
9.643207415454691
 20
15.50773424545735
 30
0.0
  0
POINT
  5
6E9
330
6D2
100
AcDbEntity
  8
Defpoints
 62
     0
100
AcDbPoint
 10
9.643207415454691
 20
14.77027565640881
 30
0.0
  0
ENDBLK
  5
6DE
330
6D2
100
AcDbEntity
  8
0
100
AcDbBlockEnd
  0
BLOCK
  5
6F8
330
6ED
100
AcDbEntity
  8
0
100
AcDbBlockBegin
  2
*D12
 70
     1
 10
0.0
 20
0.0
 30
0.0
  3
*D12
  1

  0
LINE
  5
837
330
6ED
100
AcDbEntity
  8
EXT
 62
     0
370
    -2
100
AcDbLine
 10
9.14321809221496
 20
17.43614016385539
 30
0.0
 11
9.14321809221496
 21
18.9646275125604
 31
0.0
  0
LINE
  5
838
330
6ED
100
AcDbEntity
  8
EXT
 62
     0
370
    -2
100
AcDbLine
 10
10.13542837758411
 20
16.97354016385539
 30
0.0
 11
10.13542837758411
 21
18.9646275125604
 31
0.0
  0
LINE
  5
839
330
6ED
100
AcDbEntity
  8
EXT
 62
     0
370
    -2
100
AcDbLine
 10
9.23321809221496
 20
18.8746275125604
 30
0.0
 11
9.376823234899539
 21
18.8746275125604
 31
0.0
  0
LINE
  5
83A
330
6ED
100
AcDbEntity
  8
EXT
 62
     0
370
    -2
100
AcDbLine
 10
10.04542837758412
 20
18.8746275125604
 30
0.0
 11
9.901823234899538
 21
18.8746275125604
 31
0.0
  0
SOLID
  5
83B
330
6ED
100
AcDbEntity
  8
EXT
 62
     0
100
AcDbTrace
 10
9.23321809221496
 20
18.8896275125604
 30
0.0
 11
9.23321809221496
 21
18.8596275125604
 31
0.0
 12
9.14321809221496
 22
18.8746275125604
 32
0.0
 13
9.14321809221496
 23
18.8746275125604
 33
0.0
  0
SOLID
  5
83C
330
6ED
100
AcDbEntity
  8
EXT
 62
     0
100
AcDbTrace
 10
10.04542837758412
 20
18.8896275125604
 30
0.0
 11
10.04542837758412
 21
18.8596275125604
 31
0.0
 12
10.13542837758411
 22
18.8746275125604
 32
0.0
 13
10.13542837758411
 23
18.8746275125604
 33
0.0
  0
MTEXT
  5
83D
330
6ED
100
AcDbEntity
  8
EXT
 62
     0
100
AcDbMText
 10
9.639323234899539
 20
18.8746275125604
 30
0.0
 40
0.09
 41
0.0
 71
     5
 72
     1
  1
\A1;0.9922
 73
     1
 44
1.0
  0
POINT
  5
83E
330
6ED
100
AcDbEntity
  8
Defpoints
 62
     0
100
AcDbPoint
 10
9.14321809221496
 20
17.40489016385539
 30
0.0
  0
POINT
  5
83F
330
6ED
100
AcDbEntity
  8
Defpoints
 62
     0
100
AcDbPoint
 10
10.13542837758411
 20
16.94229016385539
 30
0.0
  0
POINT
  5
840
330
6ED
100
AcDbEntity
  8
Defpoints
 62
     0
100
AcDbPoint
 10
10.13542837758411
 20
18.8746275125604
 30
0.0
  0
ENDBLK
  5
6F9
330
6ED
100
AcDbEntity
  8
0
100
AcDbBlockEnd
  0
BLOCK
  5
72A
330
71F
100
AcDbEntity
  8
0
100
AcDbBlockBegin
  2
*D13
 70
     1
 10
0.0
 20
0.0
 30
0.0
  3
*D13
  1

  0
LINE
  5
8DC
330
71F
100
AcDbEntity
  8
EXT
 62
     0
370
    -2
100
AcDbLine
 10
6.635682164656708
 20
11.5449750031803
 30
0.0
 11
6.635682164656708
 21
11.89059423673666
 31
0.0
  0
LINE
  5
8DD
330
71F
100
AcDbEntity
  8
EXT
 62
     0
370
    -2
100
AcDbLine
 10
9.592342380508711
 20
11.5449750031803
 30
0.0
 11
9.592342380508711
 21
11.89059423673666
 31
0.0
  0
LINE
  5
8DE
330
71F
100
AcDbEntity
  8
EXT
 62
     0
370
    -2
100
AcDbLine
 10
6.725682164656708
 20
11.80059423673665
 30
0.0
 11
7.844012272582709
 21
11.80059423673665
 31
0.0
  0
LINE
  5
8DF
330
71F
100
AcDbEntity
  8
EXT
 62
     0
370
    -2
100
AcDbLine
 10
9.502342380508711
 20
11.80059423673665
 30
0.0
 11
8.384012272582708
 21
11.80059423673665
 31
0.0
  0
SOLID
  5
8E0
330
71F
100
AcDbEntity
  8
EXT
 62
     0
100
AcDbTrace
 10
6.725682164656708
 20
11.81559423673665
 30
0.0
 11
6.725682164656708
 21
11.78559423673665
 31
0.0
 12
6.635682164656708
 22
11.80059423673665
 32
0.0
 13
6.635682164656708
 23
11.80059423673665
 33
0.0
  0
SOLID
  5
8E1
330
71F
100
AcDbEntity
  8
EXT
 62
     0
100
AcDbTrace
 10
9.502342380508711
 20
11.81559423673665
 30
0.0
 11
9.502342380508711
 21
11.78559423673665
 31
0.0
 12
9.592342380508711
 22
11.80059423673665
 32
0.0
 13
9.592342380508711
 23
11.80059423673665
 33
0.0
  0
MTEXT
  5
8E2
330
71F
100
AcDbEntity
  8
EXT
 62
     0
100
AcDbMText
 10
8.114012272582709
 20
11.80059423673665
 30
0.0
 40
0.09
 41
0.0
 71
     5
 72
     1
  1
\A1;2.9567
 73
     1
 44
1.0
  0
POINT
  5
8E3
330
71F
100
AcDbEntity
  8
Defpoints
 62
     0
100
AcDbPoint
 10
6.635682164656708
 20
11.5137250031803
 30
0.0
  0
POINT
  5
8E4
330
71F
100
AcDbEntity
  8
Defpoints
 62
     0
100
AcDbPoint
 10
9.592342380508711
 20
11.5137250031803
 30
0.0
  0
POINT
  5
8E5
330
71F
100
AcDbEntity
  8
Defpoints
 62
     0
100
AcDbPoint
 10
9.592342380508711
 20
11.80059423673665
 30
0.0
  0
ENDBLK
  5
72B
330
71F
100
AcDbEntity
  8
0
100
AcDbBlockEnd
  0
BLOCK
  5
74F
330
744
100
AcDbEntity
  8
0
100
AcDbBlockBegin
  2
*D14
 70
     1
 10
0.0
 20
0.0
 30
0.0
  3
*D14
  1

  0
LINE
  5
8FB
330
744
100
AcDbEntity
  8
EXT
 62
     0
370
    -2
100
AcDbLine
 10
9.592342380508711
 20
11.5449750031803
 30
0.0
 11
9.592342380508711
 21
12.08073349054552
 31
0.0
  0
LINE
  5
8FC
330
744
100
AcDbEntity
  8
EXT
 62
     0
370
    -2
100
AcDbLine
 10
10.21303062664807
 20
11.6074750031803
 30
0.0
 11
10.21303062664807
 21
12.08073349054552
 31
0.0
  0
LINE
  5
8FD
330
744
100
AcDbEntity
  8
EXT
 62
     0
370
    -2
100
AcDbLine
 10
9.502342380508711
 20
11.99073349054552
 30
0.0
 11
9.412342380508711
 21
11.99073349054552
 31
0.0
  0
LINE
  5
8FE
330
744
100
AcDbEntity
  8
EXT
 62
     0
370
    -2
100
AcDbLine
 10
10.30303062664807
 20
11.99073349054552
 30
0.0
 11
10.39303062664807
 21
11.99073349054552
 31
0.0
  0
SOLID
  5
8FF
330
744
100
AcDbEntity
  8
EXT
 62
     0
100
AcDbTrace
 10
9.502342380508711
 20
12.00573349054552
 30
0.0
 11
9.502342380508711
 21
11.97573349054552
 31
0.0
 12
9.592342380508711
 22
11.99073349054552
 32
0.0
 13
9.592342380508711
 23
11.99073349054552
 33
0.0
  0
SOLID
  5
900
330
744
100
AcDbEntity
  8
EXT
 62
     0
100
AcDbTrace
 10
10.30303062664807
 20
12.00573349054552
 30
0.0
 11
10.30303062664807
 21
11.97573349054552
 31
0.0
 12
10.21303062664807
 22
11.99073349054552
 32
0.0
 13
10.21303062664807
 23
11.99073349054552
 33
0.0
  0
MTEXT
  5
901
330
744
100
AcDbEntity
  8
EXT
 62
     0
100
AcDbMText
 10
9.902686503578394
 20
11.99073349054552
 30
0.0
 40
0.09
 41
0.0
 71
     5
 72
     1
  1
\A1;0.6207
 73
     1
 44
1.0
  0
POINT
  5
902
330
744
100
AcDbEntity
  8
Defpoints
 62
     0
100
AcDbPoint
 10
9.592342380508711
 20
11.5137250031803
 30
0.0
  0
POINT
  5
903
330
744
100
AcDbEntity
  8
Defpoints
 62
     0
100
AcDbPoint
 10
10.21303062664807
 20
11.5762250031803
 30
0.0
  0
POINT
  5
904
330
744
100
AcDbEntity
  8
Defpoints
 62
     0
100
AcDbPoint
 10
10.21303062664807
 20
11.99073349054552
 30
0.0
  0
ENDBLK
  5
750
330
744
100
AcDbEntity
  8
0
100
AcDbBlockEnd
  0
BLOCK
  5
769
330
75E
100
AcDbEntity
  8
0
100
AcDbBlockBegin
  2
*D15
 70
     1
 10
0.0
 20
0.0
 30
0.0
  3
*D15
  1

  0
LINE
  5
8C7
330
75E
100
AcDbEntity
  8
EXT
 62
     0
370
    -2
100
AcDbLine
 10
10.21303062664807
 20
11.6074750031803
 30
0.0
 11
10.21303062664807
 21
11.99430647796844
 31
0.0
  0
LINE
  5
8C8
330
75E
100
AcDbEntity
  8
EXT
 62
     0
370
    -2
100
AcDbLine
 10
11.21953062664807
 20
11.6296250031803
 30
0.0
 11
11.21953062664807
 21
11.99430647796844
 31
0.0
  0
LINE
  5
8C9
330
75E
100
AcDbEntity
  8
EXT
 62
     0
370
    -2
100
AcDbLine
 10
10.30303062664807
 20
11.90430647796844
 30
0.0
 11
10.47628062664807
 21
11.90430647796844
 31
0.0
  0
LINE
  5
8CA
330
75E
100
AcDbEntity
  8
EXT
 62
     0
370
    -2
100
AcDbLine
 10
11.12953062664807
 20
11.90430647796844
 30
0.0
 11
10.95628062664807
 21
11.90430647796844
 31
0.0
  0
SOLID
  5
8CB
330
75E
100
AcDbEntity
  8
EXT
 62
     0
100
AcDbTrace
 10
10.30303062664807
 20
11.91930647796844
 30
0.0
 11
10.30303062664807
 21
11.88930647796844
 31
0.0
 12
10.21303062664807
 22
11.90430647796844
 32
0.0
 13
10.21303062664807
 23
11.90430647796844
 33
0.0
  0
SOLID
  5
8CC
330
75E
100
AcDbEntity
  8
EXT
 62
     0
100
AcDbTrace
 10
11.12953062664807
 20
11.91930647796844
 30
0.0
 11
11.12953062664807
 21
11.88930647796844
 31
0.0
 12
11.21953062664807
 22
11.90430647796844
 32
0.0
 13
11.21953062664807
 23
11.90430647796844
 33
0.0
  0
MTEXT
  5
8CD
330
75E
100
AcDbEntity
  8
EXT
 62
     0
100
AcDbMText
 10
10.71628062664807
 20
11.90430647796844
 30
0.0
 40
0.09
 41
0.0
 71
     5
 72
     1
  1
\A1;1.0065
 73
     1
 44
1.0
  0
POINT
  5
8CE
330
75E
100
AcDbEntity
  8
Defpoints
 62
     0
100
AcDbPoint
 10
10.21303062664807
 20
11.5762250031803
 30
0.0
  0
POINT
  5
8CF
330
75E
100
AcDbEntity
  8
Defpoints
 62
     0
100
AcDbPoint
 10
11.21953062664807
 20
11.5983750031803
 30
0.0
  0
POINT
  5
8D0
330
75E
100
AcDbEntity
  8
Defpoints
 62
     0
100
AcDbPoint
 10
11.21953062664807
 20
11.90430647796844
 30
0.0
  0
ENDBLK
  5
76A
330
75E
100
AcDbEntity
  8
0
100
AcDbBlockEnd
  0
BLOCK
  5
783
330
778
100
AcDbEntity
  8
0
100
AcDbBlockBegin
  2
*D16
 70
     1
 10
0.0
 20
0.0
 30
0.0
  3
*D16
  1

  0
LINE
  5
8B3
330
778
100
AcDbEntity
  8
EXT
 62
     0
370
    -2
100
AcDbLine
 10
11.21953062664807
 20
11.7546250031803
 30
0.0
 11
11.21953062664807
 21
12.25934904125869
 31
0.0
  0
LINE
  5
8B4
330
778
100
AcDbEntity
  8
EXT
 62
     0
370
    -2
100
AcDbLine
 10
11.28203062664807
 20
11.7546250031803
 30
0.0
 11
11.28203062664807
 21
12.25934904125869
 31
0.0
  0
LINE
  5
8B5
330
778
100
AcDbEntity
  8
EXT
 62
     0
370
    -2
100
AcDbLine
 10
11.12953062664807
 20
12.16934904125869
 30
0.0
 11
11.03953062664807
 21
12.16934904125869
 31
0.0
  0
LINE
  5
8B6
330
778
100
AcDbEntity
  8
EXT
 62
     0
370
    -2
100
AcDbLine
 10
11.37203062664807
 20
12.16934904125869
 30
0.0
 11
11.46203062664807
 21
12.16934904125869
 31
0.0
  0
SOLID
  5
8B7
330
778
100
AcDbEntity
  8
EXT
 62
     0
100
AcDbTrace
 10
11.12953062664807
 20
12.18434904125869
 30
0.0
 11
11.12953062664807
 21
12.15434904125869
 31
0.0
 12
11.21953062664807
 22
12.16934904125869
 32
0.0
 13
11.21953062664807
 23
12.16934904125869
 33
0.0
  0
SOLID
  5
8B8
330
778
100
AcDbEntity
  8
EXT
 62
     0
100
AcDbTrace
 10
11.37203062664807
 20
12.18434904125869
 30
0.0
 11
11.37203062664807
 21
12.15434904125869
 31
0.0
 12
11.28203062664807
 22
12.16934904125869
 32
0.0
 13
11.28203062664807
 23
12.16934904125869
 33
0.0
  0
MTEXT
  5
8B9
330
778
100
AcDbEntity
  8
EXT
 62
     0
100
AcDbMText
 10
11.71703062664807
 20
12.16934904125869
 30
0.0
 40
0.09
 41
0.0
 71
     5
 72
     1
  1
\A1;0.0625
 73
     1
 44
1.0
  0
POINT
  5
8BA
330
778
100
AcDbEntity
  8
Defpoints
 62
     0
100
AcDbPoint
 10
11.21953062664807
 20
11.7233750031803
 30
0.0
  0
POINT
  5
8BB
330
778
100
AcDbEntity
  8
Defpoints
 62
     0
100
AcDbPoint
 10
11.28203062664807
 20
11.7233750031803
 30
0.0
  0
POINT
  5
8BC
330
778
100
AcDbEntity
  8
Defpoints
 62
     0
100
AcDbPoint
 10
11.28203062664807
 20
12.16934904125869
 30
0.0
  0
ENDBLK
  5
784
330
778
100
AcDbEntity
  8
0
100
AcDbBlockEnd
  0
BLOCK
  5
7C9
330
7BE
100
AcDbEntity
  8
0
100
AcDbBlockBegin
  2
*D17
 70
     1
 10
0.0
 20
0.0
 30
0.0
  3
*D17
  1

  0
LINE
  5
82D
330
7BE
100
AcDbEntity
  8
EXT
 62
     0
370
    -2
100
AcDbLine
 10
11.17317837758411
 20
16.94229016385539
 30
0.0
 11
10.77338214973628
 21
16.94229016385539
 31
0.0
  0
LINE
  5
82E
330
7BE
100
AcDbEntity
  8
EXT
 62
     0
370
    -2
100
AcDbLine
 10
11.17317837758411
 20
15.36749016385539
 30
0.0
 11
10.77338214973628
 21
15.36749016385539
 31
0.0
  0
LINE
  5
82F
330
7BE
100
AcDbEntity
  8
EXT
 62
     0
370
    -2
100
AcDbLine
 10
10.86338214973628
 20
16.85229016385539
 30
0.0
 11
10.86338214973628
 21
16.24489016385539
 31
0.0
  0
LINE
  5
830
330
7BE
100
AcDbEntity
  8
EXT
 62
     0
370
    -2
100
AcDbLine
 10
10.86338214973628
 20
15.45749016385538
 30
0.0
 11
10.86338214973628
 21
16.06489016385539
 31
0.0
  0
SOLID
  5
831
330
7BE
100
AcDbEntity
  8
EXT
 62
     0
100
AcDbTrace
 10
10.84838214973628
 20
16.85229016385539
 30
0.0
 11
10.87838214973628
 21
16.85229016385539
 31
0.0
 12
10.86338214973628
 22
16.94229016385539
 32
0.0
 13
10.86338214973628
 23
16.94229016385539
 33
0.0
  0
SOLID
  5
832
330
7BE
100
AcDbEntity
  8
EXT
 62
     0
100
AcDbTrace
 10
10.84838214973628
 20
15.45749016385538
 30
0.0
 11
10.87838214973628
 21
15.45749016385538
 31
0.0
 12
10.86338214973628
 22
15.36749016385539
 32
0.0
 13
10.86338214973628
 23
15.36749016385539
 33
0.0
  0
MTEXT
  5
833
330
7BE
100
AcDbEntity
  8
EXT
 62
     0
100
AcDbMText
 10
10.86338214973628
 20
16.15489016385539
 30
0.0
 40
0.09
 41
0.0
 71
     5
 72
     1
  1
\A1;1.5748
 73
     1
 44
1.0
  0
POINT
  5
834
330
7BE
100
AcDbEntity
  8
Defpoints
 62
     0
100
AcDbPoint
 10
11.20442837758411
 20
16.94229016385539
 30
0.0
  0
POINT
  5
835
330
7BE
100
AcDbEntity
  8
Defpoints
 62
     0
100
AcDbPoint
 10
11.20442837758411
 20
15.36749016385539
 30
0.0
  0
POINT
  5
836
330
7BE
100
AcDbEntity
  8
Defpoints
 62
     0
100
AcDbPoint
 10
10.86338214973628
 20
15.36749016385539
 30
0.0
  0
ENDBLK
  5
7CA
330
7BE
100
AcDbEntity
  8
0
100
AcDbBlockEnd
  0
BLOCK
  5
7EE
330
7E3
100
AcDbEntity
  8
0
100
AcDbBlockBegin
  2
*D18
 70
     1
 10
0.0
 20
0.0
 30
0.0
  3
*D18
  1

  0
LINE
  5
841
330
7E3
100
AcDbEntity
  8
EXT
 62
     0
370
    -2
100
AcDbLine
 10
11.31328062664808
 20
16.93839016385538
 30
0.0
 11
11.65833454258955
 21
16.93839016385538
 31
0.0
  0
LINE
  5
842
330
7E3
100
AcDbEntity
  8
EXT
 62
     0
370
    -2
100
AcDbLine
 10
11.31328062664807
 20
15.37139016385538
 30
0.0
 11
11.65833454258955
 21
15.37139016385538
 31
0.0
  0
LINE
  5
843
330
7E3
100
AcDbEntity
  8
EXT
 62
     0
370
    -2
100
AcDbLine
 10
11.56833454258955
 20
16.84839016385538
 30
0.0
 11
11.56833454258955
 21
16.24489016385538
 31
0.0
  0
LINE
  5
844
330
7E3
100
AcDbEntity
  8
EXT
 62
     0
370
    -2
100
AcDbLine
 10
11.56833454258955
 20
15.46139016385539
 30
0.0
 11
11.56833454258955
 21
16.06489016385538
 31
0.0
  0
SOLID
  5
845
330
7E3
100
AcDbEntity
  8
EXT
 62
     0
100
AcDbTrace
 10
11.55333454258955
 20
16.84839016385538
 30
0.0
 11
11.58333454258955
 21
16.84839016385538
 31
0.0
 12
11.56833454258955
 22
16.93839016385538
 32
0.0
 13
11.56833454258955
 23
16.93839016385538
 33
0.0
  0
SOLID
  5
846
330
7E3
100
AcDbEntity
  8
EXT
 62
     0
100
AcDbTrace
 10
11.55333454258955
 20
15.46139016385539
 30
0.0
 11
11.58333454258955
 21
15.46139016385539
 31
0.0
 12
11.56833454258955
 22
15.37139016385538
 32
0.0
 13
11.56833454258955
 23
15.37139016385538
 33
0.0
  0
MTEXT
  5
847
330
7E3
100
AcDbEntity
  8
EXT
 62
     0
100
AcDbMText
 10
11.56833454258955
 20
16.15489016385539
 30
0.0
 40
0.09
 41
0.0
 71
     5
 72
     1
  1
\A1;1.5670
 73
     1
 44
1.0
  0
POINT
  5
848
330
7E3
100
AcDbEntity
  8
Defpoints
 62
     0
100
AcDbPoint
 10
11.28203062664808
 20
16.93839016385538
 30
0.0
  0
POINT
  5
849
330
7E3
100
AcDbEntity
  8
Defpoints
 62
     0
100
AcDbPoint
 10
11.28203062664807
 20
15.37139016385538
 30
0.0
  0
POINT
  5
84A
330
7E3
100
AcDbEntity
  8
Defpoints
 62
     0
100
AcDbPoint
 10
11.56833454258955
 20
15.37139016385538
 30
0.0
  0
ENDBLK
  5
7EF
330
7E3
100
AcDbEntity
  8
0
100
AcDbBlockEnd
  0
BLOCK
  5
80A
330
7FF
100
AcDbEntity
  8
0
100
AcDbBlockBegin
  2
*D19
 70
     1
 10
0.0
 20
0.0
 30
0.0
  3
*D19
  1

  0
LINE
  5
818
330
7FF
100
AcDbEntity
  8
EXT
 62
     0
370
    -2
100
AcDbLine
 10
10.83803062664807
 20
17.31114016385539
 30
0.0
 11
10.83803062664807
 21
17.94441594856342
 31
0.0
  0
LINE
  5
819
330
7FF
100
AcDbEntity
  8
EXT
 62
     0
370
    -2
100
AcDbLine
 10
11.83803062664807
 20
17.31114016385539
 30
0.0
 11
11.83803062664807
 21
17.94441594856342
 31
0.0
  0
LINE
  5
81A
330
7FF
100
AcDbEntity
  8
EXT
 62
     0
370
    -2
100
AcDbLine
 10
10.92803062664807
 20
17.85441594856342
 30
0.0
 11
11.11303062664807
 21
17.85441594856342
 31
0.0
  0
LINE
  5
81B
330
7FF
100
AcDbEntity
  8
EXT
 62
     0
370
    -2
100
AcDbLine
 10
11.74803062664807
 20
17.85441594856342
 30
0.0
 11
11.56303062664807
 21
17.85441594856342
 31
0.0
  0
SOLID
  5
81C
330
7FF
100
AcDbEntity
  8
EXT
 62
     0
100
AcDbTrace
 10
10.92803062664807
 20
17.86941594856342
 30
0.0
 11
10.92803062664807
 21
17.83941594856342
 31
0.0
 12
10.83803062664807
 22
17.85441594856342
 32
0.0
 13
10.83803062664807
 23
17.85441594856342
 33
0.0
  0
SOLID
  5
81D
330
7FF
100
AcDbEntity
  8
EXT
 62
     0
100
AcDbTrace
 10
11.74803062664807
 20
17.86941594856342
 30
0.0
 11
11.74803062664807
 21
17.83941594856342
 31
0.0
 12
11.83803062664807
 22
17.85441594856342
 32
0.0
 13
11.83803062664807
 23
17.85441594856342
 33
0.0
  0
MTEXT
  5
81E
330
7FF
100
AcDbEntity
  8
EXT
 62
     0
100
AcDbMText
 10
11.33803062664807
 20
17.85441594856342
 30
0.0
 40
0.09
 41
0.0
 71
     5
 72
     1
  1
\A1;1.0000
 73
     1
 44
1.0
  0
POINT
  5
81F
330
7FF
100
AcDbEntity
  8
Defpoints
 62
     0
100
AcDbPoint
 10
10.83803062664807
 20
17.27989016385539
 30
0.0
  0
POINT
  5
820
330
7FF
100
AcDbEntity
  8
Defpoints
 62
     0
100
AcDbPoint
 10
11.83803062664807
 20
17.27989016385539
 30
0.0
  0
POINT
  5
821
330
7FF
100
AcDbEntity
  8
Defpoints
 62
     0
100
AcDbPoint
 10
11.83803062664807
 20
17.85441594856342
 30
0.0
  0
ENDBLK
  5
80B
330
7FF
100
AcDbEntity
  8
0
100
AcDbBlockEnd
  0
BLOCK
  5
859
330
84E
100
AcDbEntity
  8
0
100
AcDbBlockBegin
  2
*D20
 70
     1
 10
0.0
 20
0.0
 30
0.0
  3
*D20
  1

  0
LINE
  5
85C
330
84E
100
AcDbEntity
  8
EXT
 62
     0
370
    -2
100
AcDbLine
 10
11.20442837758411
 20
16.97354016385539
 30
0.0
 11
11.20442837758411
 21
17.24344139551047
 31
0.0
  0
LINE
  5
85D
330
84E
100
AcDbEntity
  8
EXT
 62
     0
370
    -2
100
AcDbLine
 10
10.73242837758412
 20
16.97354016385539
 30
0.0
 11
10.73242837758412
 21
17.24344139551047
 31
0.0
  0
LINE
  5
85E
330
84E
100
AcDbEntity
  8
EXT
 62
     0
370
    -2
100
AcDbLine
 10
11.11442837758412
 20
17.15344139551047
 30
0.0
 11
10.82242837758411
 21
17.15344139551047
 31
0.0
  0
LINE
  5
85F
330
84E
100
AcDbEntity
  8
EXT
 62
     0
370
    -2
100
AcDbLine
 10
10.73242837758412
 20
17.15344139551047
 30
0.0
 11
10.64242837758411
 21
17.15344139551047
 31
0.0
  0
SOLID
  5
860
330
84E
100
AcDbEntity
  8
EXT
 62
     0
100
AcDbTrace
 10
11.11442837758412
 20
17.16844139551047
 30
0.0
 11
11.11442837758412
 21
17.13844139551047
 31
0.0
 12
11.20442837758411
 22
17.15344139551047
 32
0.0
 13
11.20442837758411
 23
17.15344139551047
 33
0.0
  0
SOLID
  5
861
330
84E
100
AcDbEntity
  8
EXT
 62
     0
100
AcDbTrace
 10
10.82242837758411
 20
17.16844139551047
 30
0.0
 11
10.82242837758411
 21
17.13844139551047
 31
0.0
 12
10.73242837758412
 22
17.15344139551047
 32
0.0
 13
10.73242837758412
 23
17.15344139551047
 33
0.0
  0
MTEXT
  5
862
330
84E
100
AcDbEntity
  8
EXT
 62
     0
100
AcDbMText
 10
10.38742837758411
 20
17.15344139551047
 30
0.0
 40
0.09
 41
0.0
 71
     5
 72
     1
  1
\A1;0.4720
 73
     1
 44
1.0
  0
POINT
  5
863
330
84E
100
AcDbEntity
  8
Defpoints
 62
     0
100
AcDbPoint
 10
11.20442837758411
 20
16.94229016385539
 30
0.0
  0
POINT
  5
864
330
84E
100
AcDbEntity
  8
Defpoints
 62
     0
100
AcDbPoint
 10
10.73242837758412
 20
16.94229016385539
 30
0.0
  0
POINT
  5
865
330
84E
100
AcDbEntity
  8
Defpoints
 62
     0
100
AcDbPoint
 10
10.73242837758412
 20
17.15344139551047
 30
0.0
  0
ENDBLK
  5
85A
330
84E
100
AcDbEntity
  8
0
100
AcDbBlockEnd
  0
BLOCK
  5
911
330
906
100
AcDbEntity
  8
0
100
AcDbBlockBegin
  2
*D21
 70
     1
 10
0.0
 20
0.0
 30
0.0
  3
*D21
  1

  0
LINE
  5
914
330
906
100
AcDbEntity
  8
EXT
 62
     0
370
    -2
100
AcDbLine
 10
11.28203062664807
 20
10.4489750031803
 30
0.0
 11
11.28203062664807
 21
9.591038055384597
 31
0.0
  0
LINE
  5
915
330
906
100
AcDbEntity
  8
EXT
 62
     0
370
    -2
100
AcDbLine
 10
15.03203062664807
 20
10.4489750031803
 30
0.0
 11
15.03203062664807
 21
9.591038055384597
 31
0.0
  0
LINE
  5
916
330
906
100
AcDbEntity
  8
EXT
 62
     0
370
    -2
100
AcDbLine
 10
11.37203062664807
 20
9.681038055384597
 30
0.0
 11
12.90203062664807
 21
9.681038055384597
 31
0.0
  0
LINE
  5
917
330
906
100
AcDbEntity
  8
EXT
 62
     0
370
    -2
100
AcDbLine
 10
14.94203062664808
 20
9.681038055384597
 30
0.0
 11
13.41203062664807
 21
9.681038055384597
 31
0.0
  0
SOLID
  5
918
330
906
100
AcDbEntity
  8
EXT
 62
     0
100
AcDbTrace
 10
11.37203062664807
 20
9.696038055384597
 30
0.0
 11
11.37203062664807
 21
9.666038055384596
 31
0.0
 12
11.28203062664807
 22
9.681038055384597
 32
0.0
 13
11.28203062664807
 23
9.681038055384597
 33
0.0
  0
SOLID
  5
919
330
906
100
AcDbEntity
  8
EXT
 62
     0
100
AcDbTrace
 10
14.94203062664808
 20
9.696038055384597
 30
0.0
 11
14.94203062664808
 21
9.666038055384596
 31
0.0
 12
15.03203062664807
 22
9.681038055384597
 32
0.0
 13
15.03203062664807
 23
9.681038055384597
 33
0.0
  0
MTEXT
  5
91A
330
906
100
AcDbEntity
  8
EXT
 62
     0
100
AcDbMText
 10
13.15703062664807
 20
9.681038055384597
 30
0.0
 40
0.09
 41
0.0
 71
     5
 72
     1
  1
\A1;3.7500
 73
     1
 44
1.0
  0
POINT
  5
91B
330
906
100
AcDbEntity
  8
Defpoints
 62
     0
100
AcDbPoint
 10
11.28203062664807
 20
10.4802250031803
 30
0.0
  0
POINT
  5
91C
330
906
100
AcDbEntity
  8
Defpoints
 62
     0
100
AcDbPoint
 10
15.03203062664807
 20
10.4802250031803
 30
0.0
  0
POINT
  5
91D
330
906
100
AcDbEntity
  8
Defpoints
 62
     0
100
AcDbPoint
 10
15.03203062664807
 20
9.681038055384597
 30
0.0
  0
ENDBLK
  5
912
330
906
100
AcDbEntity
  8
0
100
AcDbBlockEnd
  0
BLOCK
  5
939
330
92D
100
AcDbEntity
  8
0
100
AcDbBlockBegin
  2
*D22
 70
     1
 10
0.0
 20
0.0
 30
0.0
  3
*D22
  1

  0
LINE
  5
95E
330
92D
100
AcDbEntity
  8
EXT
 62
     0
370
    -2
100
AcDbLine
 10
11.43289559688439
 20
11.7233750031803
 30
0.0
 11
11.30344746634691
 21
11.7233750031803
 31
0.0
  0
LINE
  5
95F
330
92D
100
AcDbEntity
  8
EXT
 62
     0
370
    -2
100
AcDbLine
 10
11.43289559688438
 20
11.5983750031803
 30
0.0
 11
11.30344746634691
 21
11.5983750031803
 31
0.0
  0
LINE
  5
960
330
92D
100
AcDbEntity
  8
EXT
 62
     0
370
    -2
100
AcDbLine
 10
11.39344746634691
 20
11.8133750031803
 30
0.0
 11
11.39344746634691
 21
11.9033750031803
 31
0.0
  0
LINE
  5
961
330
92D
100
AcDbEntity
  8
EXT
 62
     0
370
    -2
100
AcDbLine
 10
11.39344746634691
 20
11.5083750031803
 30
0.0
 11
11.39344746634691
 21
11.4183750031803
 31
0.0
  0
LINE
  5
962
330
92D
100
AcDbEntity
  8
EXT
 62
     0
370
    -2
100
AcDbLine
 10
11.39344746634691
 20
11.4183750031803
 30
0.0
 11
11.30344746634691
 21
11.4183750031803
 31
0.0
  0
SOLID
  5
963
330
92D
100
AcDbEntity
  8
EXT
 62
     0
100
AcDbTrace
 10
11.37844746634691
 20
11.8133750031803
 30
0.0
 11
11.40844746634691
 21
11.8133750031803
 31
0.0
 12
11.39344746634691
 22
11.7233750031803
 32
0.0
 13
11.39344746634691
 23
11.7233750031803
 33
0.0
  0
SOLID
  5
964
330
92D
100
AcDbEntity
  8
EXT
 62
     0
100
AcDbTrace
 10
11.37844746634691
 20
11.5083750031803
 30
0.0
 11
11.40844746634691
 21
11.5083750031803
 31
0.0
 12
11.39344746634691
 22
11.5983750031803
 32
0.0
 13
11.39344746634691
 23
11.5983750031803
 33
0.0
  0
MTEXT
  5
965
330
92D
100
AcDbEntity
  8
EXT
 62
     0
100
AcDbMText
 10
11.06344746634691
 20
11.4183750031803
 30
0.0
 40
0.09
 41
0.0
 71
     5
 72
     1
  1
\A1;0.1250
 73
     1
 44
1.0
  0
POINT
  5
966
330
92D
100
AcDbEntity
  8
Defpoints
 62
     0
100
AcDbPoint
 10
11.46414559688439
 20
11.7233750031803
 30
0.0
  0
POINT
  5
967
330
92D
100
AcDbEntity
  8
Defpoints
 62
     0
100
AcDbPoint
 10
11.46414559688438
 20
11.5983750031803
 30
0.0
  0
POINT
  5
968
330
92D
100
AcDbEntity
  8
Defpoints
 62
     0
100
AcDbPoint
 10
11.39344746634691
 20
11.5983750031803
 30
0.0
  0
ENDBLK
  5
93A
330
92D
100
AcDbEntity
  8
0
100
AcDbBlockEnd
  0
BLOCK
  5
975
330
96A
100
AcDbEntity
  8
0
100
AcDbBlockBegin
  2
*D23
 70
     1
 10
0.0
 20
0.0
 30
0.0
  3
*D23
  1

  0
LINE
  5
978
330
96A
100
AcDbEntity
  8
EXT
 62
     0
370
    -2
100
AcDbLine
 10
10.60742837758412
 20
15.46124016385538
 30
0.0
 11
10.60742837758412
 21
15.10499056759546
 31
0.0
  0
LINE
  5
979
330
96A
100
AcDbEntity
  8
EXT
 62
     0
370
    -2
100
AcDbLine
 10
10.73242837758412
 20
15.46124016385538
 30
0.0
 11
10.73242837758412
 21
15.10499056759546
 31
0.0
  0
LINE
  5
97A
330
96A
100
AcDbEntity
  8
EXT
 62
     0
370
    -2
100
AcDbLine
 10
10.51742837758411
 20
15.19499056759546
 30
0.0
 11
10.42742837758412
 21
15.19499056759546
 31
0.0
  0
LINE
  5
97B
330
96A
100
AcDbEntity
  8
EXT
 62
     0
370
    -2
100
AcDbLine
 10
10.82242837758411
 20
15.19499056759546
 30
0.0
 11
10.91242837758412
 21
15.19499056759546
 31
0.0
  0
SOLID
  5
97C
330
96A
100
AcDbEntity
  8
EXT
 62
     0
100
AcDbTrace
 10
10.51742837758411
 20
15.20999056759546
 30
0.0
 11
10.51742837758411
 21
15.17999056759546
 31
0.0
 12
10.60742837758412
 22
15.19499056759546
 32
0.0
 13
10.60742837758412
 23
15.19499056759546
 33
0.0
  0
SOLID
  5
97D
330
96A
100
AcDbEntity
  8
EXT
 62
     0
100
AcDbTrace
 10
10.82242837758411
 20
15.20999056759546
 30
0.0
 11
10.82242837758411
 21
15.17999056759546
 31
0.0
 12
10.73242837758412
 22
15.19499056759546
 32
0.0
 13
10.73242837758412
 23
15.19499056759546
 33
0.0
  0
MTEXT
  5
97E
330
96A
100
AcDbEntity
  8
EXT
 62
     0
100
AcDbMText
 10
11.15242837758412
 20
15.19499056759546
 30
0.0
 40
0.09
 41
0.0
 71
     5
 72
     1
  1
\A1;0.1250
 73
     1
 44
1.0
  0
POINT
  5
97F
330
96A
100
AcDbEntity
  8
Defpoints
 62
     0
100
AcDbPoint
 10
10.60742837758412
 20
15.49249016385538
 30
0.0
  0
POINT
  5
980
330
96A
100
AcDbEntity
  8
Defpoints
 62
     0
100
AcDbPoint
 10
10.73242837758412
 20
15.49249016385538
 30
0.0
  0
POINT
  5
981
330
96A
100
AcDbEntity
  8
Defpoints
 62
     0
100
AcDbPoint
 10
10.73242837758412
 20
15.19499056759546
 30
0.0
  0
ENDBLK
  5
976
330
96A
100
AcDbEntity
  8
0
100
AcDbBlockEnd
  0
BLOCK
  5
995
330
98A
100
AcDbEntity
  8
0
100
AcDbBlockBegin
  2
*D24
 70
     1
 10
0.0
 20
0.0
 30
0.0
  3
*D24
  1

  0
LINE
  5
998
330
98A
100
AcDbEntity
  8
EXT
 62
     0
370
    -2
100
AcDbLine
 10
15.03203062664807
 20
16.96964016385539
 30
0.0
 11
15.03203062664807
 21
18.11624484675013
 31
0.0
  0
LINE
  5
999
330
98A
100
AcDbEntity
  8
EXT
 62
     0
370
    -2
100
AcDbLine
 10
18.08803062664807
 20
16.98504983887592
 30
0.0
 11
18.08803062664807
 21
18.11624484675013
 31
0.0
  0
LINE
  5
99A
330
98A
100
AcDbEntity
  8
EXT
 62
     0
370
    -2
100
AcDbLine
 10
15.12203062664807
 20
18.02624484675013
 30
0.0
 11
16.30503062664808
 21
18.02624484675013
 31
0.0
  0
LINE
  5
99B
330
98A
100
AcDbEntity
  8
EXT
 62
     0
370
    -2
100
AcDbLine
 10
17.99803062664807
 20
18.02624484675013
 30
0.0
 11
16.81503062664807
 21
18.02624484675013
 31
0.0
  0
SOLID
  5
99C
330
98A
100
AcDbEntity
  8
EXT
 62
     0
100
AcDbTrace
 10
15.12203062664807
 20
18.04124484675013
 30
0.0
 11
15.12203062664807
 21
18.01124484675013
 31
0.0
 12
15.03203062664807
 22
18.02624484675013
 32
0.0
 13
15.03203062664807
 23
18.02624484675013
 33
0.0
  0
SOLID
  5
99D
330
98A
100
AcDbEntity
  8
EXT
 62
     0
100
AcDbTrace
 10
17.99803062664807
 20
18.04124484675013
 30
0.0
 11
17.99803062664807
 21
18.01124484675013
 31
0.0
 12
18.08803062664807
 22
18.02624484675013
 32
0.0
 13
18.08803062664807
 23
18.02624484675013
 33
0.0
  0
MTEXT
  5
99E
330
98A
100
AcDbEntity
  8
EXT
 62
     0
100
AcDbMText
 10
16.56003062664807
 20
18.02624484675013
 30
0.0
 40
0.09
 41
0.0
 71
     5
 72
     1
  1
\A1;3.0560
 73
     1
 44
1.0
  0
POINT
  5
99F
330
98A
100
AcDbEntity
  8
Defpoints
 62
     0
100
AcDbPoint
 10
15.03203062664807
 20
16.93839016385539
 30
0.0
  0
POINT
  5
9A0
330
98A
100
AcDbEntity
  8
Defpoints
 62
     0
100
AcDbPoint
 10
18.08803062664807
 20
16.95379983887592
 30
0.0
  0
POINT
  5
9A1
330
98A
100
AcDbEntity
  8
Defpoints
 62
     0
100
AcDbPoint
 10
18.08803062664807
 20
18.02624484675013
 30
0.0
  0
ENDBLK
  5
996
330
98A
100
AcDbEntity
  8
0
100
AcDbBlockEnd
  0
BLOCK
  5
9B0
330
9A5
100
AcDbEntity
  8
0
100
AcDbBlockBegin
  2
*D25
 70
     1
 10
0.0
 20
0.0
 30
0.0
  3
*D25
  1

  0
LINE
  5
9B3
330
9A5
100
AcDbEntity
  8
EXT
 62
     0
370
    -2
100
AcDbLine
 10
15.03203062664807
 20
16.96964016385539
 30
0.0
 11
15.03203062664807
 21
18.66946850875492
 31
0.0
  0
LINE
  5
9B4
330
9A5
100
AcDbEntity
  8
EXT
 62
     0
370
    -2
100
AcDbLine
 10
22.83803062664807
 20
16.98504983887592
 30
0.0
 11
22.83803062664807
 21
18.66946850875492
 31
0.0
  0
LINE
  5
9B5
330
9A5
100
AcDbEntity
  8
EXT
 62
     0
370
    -2
100
AcDbLine
 10
15.12203062664807
 20
18.57946850875492
 30
0.0
 11
18.68003062664808
 21
18.57946850875492
 31
0.0
  0
LINE
  5
9B6
330
9A5
100
AcDbEntity
  8
EXT
 62
     0
370
    -2
100
AcDbLine
 10
22.74803062664807
 20
18.57946850875492
 30
0.0
 11
19.19003062664807
 21
18.57946850875492
 31
0.0
  0
SOLID
  5
9B7
330
9A5
100
AcDbEntity
  8
EXT
 62
     0
100
AcDbTrace
 10
15.12203062664807
 20
18.59446850875492
 30
0.0
 11
15.12203062664807
 21
18.56446850875492
 31
0.0
 12
15.03203062664807
 22
18.57946850875492
 32
0.0
 13
15.03203062664807
 23
18.57946850875492
 33
0.0
  0
SOLID
  5
9B8
330
9A5
100
AcDbEntity
  8
EXT
 62
     0
100
AcDbTrace
 10
22.74803062664807
 20
18.59446850875492
 30
0.0
 11
22.74803062664807
 21
18.56446850875492
 31
0.0
 12
22.83803062664807
 22
18.57946850875492
 32
0.0
 13
22.83803062664807
 23
18.57946850875492
 33
0.0
  0
MTEXT
  5
9B9
330
9A5
100
AcDbEntity
  8
EXT
 62
     0
100
AcDbMText
 10
18.93503062664807
 20
18.57946850875492
 30
0.0
 40
0.09
 41
0.0
 71
     5
 72
     1
  1
\A1;7.8060
 73
     1
 44
1.0
  0
POINT
  5
9BA
330
9A5
100
AcDbEntity
  8
Defpoints
 62
     0
100
AcDbPoint
 10
15.03203062664807
 20
16.93839016385539
 30
0.0
  0
POINT
  5
9BB
330
9A5
100
AcDbEntity
  8
Defpoints
 62
     0
100
AcDbPoint
 10
22.83803062664807
 20
16.95379983887592
 30
0.0
  0
POINT
  5
9BC
330
9A5
100
AcDbEntity
  8
Defpoints
 62
     0
100
AcDbPoint
 10
22.83803062664807
 20
18.57946850875492
 30
0.0
  0
ENDBLK
  5
9B1
330
9A5
100
AcDbEntity
  8
0
100
AcDbBlockEnd
  0
BLOCK
  5
9CA
330
9BF
100
AcDbEntity
  8
0
100
AcDbBlockBegin
  2
*D26
 70
     1
 10
0.0
 20
0.0
 30
0.0
  3
*D26
  1

  0
LINE
  5
9CD
330
9BF
100
AcDbEntity
  8
EXT
 62
     0
370
    -2
100
AcDbLine
 10
11.83803062664807
 20
17.31114016385539
 30
0.0
 11
11.83803062664807
 21
19.57600164234303
 31
0.0
  0
LINE
  5
9CE
330
9BF
100
AcDbEntity
  8
EXT
 62
     0
370
    -2
100
AcDbLine
 10
22.83803062664807
 20
17.01629983887592
 30
0.0
 11
22.83803062664807
 21
19.57600164234303
 31
0.0
  0
LINE
  5
9CF
330
9BF
100
AcDbEntity
  8
EXT
 62
     0
370
    -2
100
AcDbLine
 10
11.92803062664807
 20
19.48600164234303
 30
0.0
 11
17.08303062664807
 21
19.48600164234303
 31
0.0
  0
LINE
  5
9D0
330
9BF
100
AcDbEntity
  8
EXT
 62
     0
370
    -2
100
AcDbLine
 10
22.74803062664807
 20
19.48600164234303
 30
0.0
 11
17.59303062664807
 21
19.48600164234303
 31
0.0
  0
SOLID
  5
9D1
330
9BF
100
AcDbEntity
  8
EXT
 62
     0
100
AcDbTrace
 10
11.92803062664807
 20
19.50100164234303
 30
0.0
 11
11.92803062664807
 21
19.47100164234303
 31
0.0
 12
11.83803062664807
 22
19.48600164234303
 32
0.0
 13
11.83803062664807
 23
19.48600164234303
 33
0.0
  0
SOLID
  5
9D2
330
9BF
100
AcDbEntity
  8
EXT
 62
     0
100
AcDbTrace
 10
22.74803062664807
 20
19.50100164234303
 30
0.0
 11
22.74803062664807
 21
19.47100164234303
 31
0.0
 12
22.83803062664807
 22
19.48600164234303
 32
0.0
 13
22.83803062664807
 23
19.48600164234303
 33
0.0
  0
MTEXT
  5
9D3
330
9BF
100
AcDbEntity
  8
EXT
 62
     0
100
AcDbMText
 10
17.33803062664807
 20
19.48600164234303
 30
0.0
 40
0.09
 41
0.0
 71
     5
 72
     1
  1
\A1;11.0000
 73
     1
 44
1.0
  0
POINT
  5
9D4
330
9BF
100
AcDbEntity
  8
Defpoints
 62
     0
100
AcDbPoint
 10
11.83803062664807
 20
17.27989016385539
 30
0.0
  0
POINT
  5
9D5
330
9BF
100
AcDbEntity
  8
Defpoints
 62
     0
100
AcDbPoint
 10
22.83803062664807
 20
16.98504983887592
 30
0.0
  0
POINT
  5
9D6
330
9BF
100
AcDbEntity
  8
Defpoints
 62
     0
100
AcDbPoint
 10
22.83803062664807
 20
19.48600164234303
 30
0.0
  0
ENDBLK
  5
9CB
330
9BF
100
AcDbEntity
  8
0
100
AcDbBlockEnd
  0
BLOCK
  5
AB9
330
AAE
100
AcDbEntity
  8
0
100
AcDbBlockBegin
  2
*D27
 70
     1
 10
0.0
 20
0.0
 30
0.0
  3
*D27
  1

  0
LINE
  5
BB6
330
AAE
100
AcDbEntity
  8
EXT
 62
     0
370
    -2
100
AcDbLine
 10
13.36190333461347
 20
27.30937557326731
 30
0.0
 11
13.51197531262322
 21
27.30937557326731
 31
0.0
  0
LINE
  5
BB7
330
AAE
100
AcDbEntity
  8
EXT
 62
     0
370
    -2
100
AcDbLine
 10
13.36190333461347
 20
26.59237557326731
 30
0.0
 11
13.51197531262322
 21
26.59237557326731
 31
0.0
  0
LINE
  5
BB8
330
AAE
100
AcDbEntity
  8
EXT
 62
     0
370
    -2
100
AcDbLine
 10
13.42197531262321
 20
27.21937557326731
 30
0.0
 11
13.42197531262321
 21
27.04087557326731
 31
0.0
  0
LINE
  5
BB9
330
AAE
100
AcDbEntity
  8
EXT
 62
     0
370
    -2
100
AcDbLine
 10
13.42197531262321
 20
26.68237557326731
 30
0.0
 11
13.42197531262321
 21
26.86087557326731
 31
0.0
  0
SOLID
  5
BBA
330
AAE
100
AcDbEntity
  8
EXT
 62
     0
100
AcDbTrace
 10
13.40697531262321
 20
27.21937557326731
 30
0.0
 11
13.43697531262322
 21
27.21937557326731
 31
0.0
 12
13.42197531262321
 22
27.30937557326731
 32
0.0
 13
13.42197531262321
 23
27.30937557326731
 33
0.0
  0
SOLID
  5
BBB
330
AAE
100
AcDbEntity
  8
EXT
 62
     0
100
AcDbTrace
 10
13.40697531262321
 20
26.68237557326731
 30
0.0
 11
13.43697531262322
 21
26.68237557326731
 31
0.0
 12
13.42197531262321
 22
26.59237557326731
 32
0.0
 13
13.42197531262321
 23
26.59237557326731
 33
0.0
  0
MTEXT
  5
BBC
330
AAE
100
AcDbEntity
  8
EXT
 62
     0
100
AcDbMText
 10
13.42197531262321
 20
26.95087557326732
 30
0.0
 40
0.09
 41
0.0
 71
     5
 72
     1
  1
\A1;0.7170
 73
     1
 44
1.0
  0
POINT
  5
BBD
330
AAE
100
AcDbEntity
  8
Defpoints
 62
     0
100
AcDbPoint
 10
13.33065333461347
 20
27.30937557326731
 30
0.0
  0
POINT
  5
BBE
330
AAE
100
AcDbEntity
  8
Defpoints
 62
     0
100
AcDbPoint
 10
13.33065333461347
 20
26.59237557326731
 30
0.0
  0
POINT
  5
BBF
330
AAE
100
AcDbEntity
  8
Defpoints
 62
     0
100
AcDbPoint
 10
13.42197531262321
 20
26.59237557326731
 30
0.0
  0
ENDBLK
  5
ABA
330
AAE
100
AcDbEntity
  8
0
100
AcDbBlockEnd
  0
BLOCK
  5
AC6
330
ABB
100
AcDbEntity
  8
0
100
AcDbBlockBegin
  2
*D28
 70
     1
 10
0.0
 20
0.0
 30
0.0
  3
*D28
  1

  0
LINE
  5
B13
330
ABB
100
AcDbEntity
  8
EXT
 62
     0
370
    -2
100
AcDbLine
 10
6.643207415454691
 20
26.91962557326732
 30
0.0
 11
6.643207415454691
 21
26.72657079011653
 31
0.0
  0
LINE
  5
B14
330
ABB
100
AcDbEntity
  8
EXT
 62
     0
370
    -2
100
AcDbLine
 10
7.643207415454691
 20
26.91962557326732
 30
0.0
 11
7.643207415454691
 21
26.72657079011653
 31
0.0
  0
LINE
  5
B15
330
ABB
100
AcDbEntity
  8
EXT
 62
     0
370
    -2
100
AcDbLine
 10
6.733207415454691
 20
26.81657079011653
 30
0.0
 11
6.918207415454691
 21
26.81657079011653
 31
0.0
  0
LINE
  5
B16
330
ABB
100
AcDbEntity
  8
EXT
 62
     0
370
    -2
100
AcDbLine
 10
7.553207415454691
 20
26.81657079011653
 30
0.0
 11
7.368207415454691
 21
26.81657079011653
 31
0.0
  0
SOLID
  5
B17
330
ABB
100
AcDbEntity
  8
EXT
 62
     0
100
AcDbTrace
 10
6.733207415454691
 20
26.83157079011653
 30
0.0
 11
6.733207415454691
 21
26.80157079011653
 31
0.0
 12
6.643207415454691
 22
26.81657079011653
 32
0.0
 13
6.643207415454691
 23
26.81657079011653
 33
0.0
  0
SOLID
  5
B18
330
ABB
100
AcDbEntity
  8
EXT
 62
     0
100
AcDbTrace
 10
7.553207415454691
 20
26.83157079011653
 30
0.0
 11
7.553207415454691
 21
26.80157079011653
 31
0.0
 12
7.643207415454691
 22
26.81657079011653
 32
0.0
 13
7.643207415454691
 23
26.81657079011653
 33
0.0
  0
MTEXT
  5
B19
330
ABB
100
AcDbEntity
  8
EXT
 62
     0
100
AcDbMText
 10
7.143207415454691
 20
26.81657079011653
 30
0.0
 40
0.09
 41
0.0
 71
     5
 72
     1
  1
\A1;1.0000
 73
     1
 44
1.0
  0
POINT
  5
B1A
330
ABB
100
AcDbEntity
  8
Defpoints
 62
     0
100
AcDbPoint
 10
6.643207415454691
 20
26.95087557326731
 30
0.0
  0
POINT
  5
B1B
330
ABB
100
AcDbEntity
  8
Defpoints
 62
     0
100
AcDbPoint
 10
7.643207415454691
 20
26.95087557326731
 30
0.0
  0
POINT
  5
B1C
330
ABB
100
AcDbEntity
  8
Defpoints
 62
     0
100
AcDbPoint
 10
7.643207415454691
 20
26.81657079011653
 30
0.0
  0
ENDBLK
  5
AC7
330
ABB
100
AcDbEntity
  8
0
100
AcDbBlockEnd
  0
BLOCK
  5
AD3
330
AC8
100
AcDbEntity
  8
0
100
AcDbBlockBegin
  2
*D29
 70
     1
 10
0.0
 20
0.0
 30
0.0
  3
*D29
  1

  0
LINE
  5
AC9
330
AC8
100
AcDbEntity
  8
EXT
 62
     0
370
    -2
100
AcDbLine
 10
11.20442837758411
 20
27.76952557326731
 30
0.0
 11
11.20442837758411
 21
28.0394268049224
 31
0.0
  0
LINE
  5
ACA
330
AC8
100
AcDbEntity
  8
EXT
 62
     0
370
    -2
100
AcDbLine
 10
10.73242837758412
 20
27.76952557326731
 30
0.0
 11
10.73242837758412
 21
28.0394268049224
 31
0.0
  0
LINE
  5
ACB
330
AC8
100
AcDbEntity
  8
EXT
 62
     0
370
    -2
100
AcDbLine
 10
11.11442837758412
 20
27.9494268049224
 30
0.0
 11
10.82242837758411
 21
27.9494268049224
 31
0.0
  0
LINE
  5
ACC
330
AC8
100
AcDbEntity
  8
EXT
 62
     0
370
    -2
100
AcDbLine
 10
10.73242837758412
 20
27.9494268049224
 30
0.0
 11
10.64242837758411
 21
27.9494268049224
 31
0.0
  0
SOLID
  5
ACD
330
AC8
100
AcDbEntity
  8
EXT
 62
     0
100
AcDbTrace
 10
11.11442837758412
 20
27.9644268049224
 30
0.0
 11
11.11442837758412
 21
27.9344268049224
 31
0.0
 12
11.20442837758411
 22
27.9494268049224
 32
0.0
 13
11.20442837758411
 23
27.9494268049224
 33
0.0
  0
SOLID
  5
ACE
330
AC8
100
AcDbEntity
  8
EXT
 62
     0
100
AcDbTrace
 10
10.82242837758411
 20
27.9644268049224
 30
0.0
 11
10.82242837758411
 21
27.9344268049224
 31
0.0
 12
10.73242837758412
 22
27.9494268049224
 32
0.0
 13
10.73242837758412
 23
27.9494268049224
 33
0.0
  0
MTEXT
  5
ACF
330
AC8
100
AcDbEntity
  8
EXT
 62
     0
100
AcDbMText
 10
10.38742837758411
 20
27.9494268049224
 30
0.0
 40
0.09
 41
0.0
 71
     5
 72
     1
  1
\A1;0.4720
 73
     1
 44
1.0
  0
POINT
  5
AD0
330
AC8
100
AcDbEntity
  8
Defpoints
 62
     0
100
AcDbPoint
 10
11.20442837758411
 20
27.73827557326732
 30
0.0
  0
POINT
  5
AD1
330
AC8
100
AcDbEntity
  8
Defpoints
 62
     0
100
AcDbPoint
 10
10.73242837758412
 20
27.73827557326732
 30
0.0
  0
POINT
  5
AD2
330
AC8
100
AcDbEntity
  8
Defpoints
 62
     0
100
AcDbPoint
 10
10.73242837758412
 20
27.9494268049224
 30
0.0
  0
ENDBLK
  5
AD4
330
AC8
100
AcDbEntity
  8
0
100
AcDbBlockEnd
  0
BLOCK
  5
AE0
330
AD5
100
AcDbEntity
  8
0
100
AcDbBlockBegin
  2
*D30
 70
     1
 10
0.0
 20
0.0
 30
0.0
  3
*D30
  1

  0
LINE
  5
AD6
330
AD5
100
AcDbEntity
  8
EXT
 62
     0
370
    -2
100
AcDbLine
 10
10.60742837758412
 20
26.25722557326731
 30
0.0
 11
10.60742837758412
 21
25.90097597700738
 31
0.0
  0
LINE
  5
AD7
330
AD5
100
AcDbEntity
  8
EXT
 62
     0
370
    -2
100
AcDbLine
 10
10.73242837758412
 20
26.25722557326731
 30
0.0
 11
10.73242837758412
 21
25.90097597700738
 31
0.0
  0
LINE
  5
AD8
330
AD5
100
AcDbEntity
  8
EXT
 62
     0
370
    -2
100
AcDbLine
 10
10.51742837758411
 20
25.99097597700739
 30
0.0
 11
10.42742837758412
 21
25.99097597700739
 31
0.0
  0
LINE
  5
AD9
330
AD5
100
AcDbEntity
  8
EXT
 62
     0
370
    -2
100
AcDbLine
 10
10.82242837758411
 20
25.99097597700739
 30
0.0
 11
10.91242837758412
 21
25.99097597700739
 31
0.0
  0
SOLID
  5
ADA
330
AD5
100
AcDbEntity
  8
EXT
 62
     0
100
AcDbTrace
 10
10.51742837758411
 20
26.00597597700739
 30
0.0
 11
10.51742837758411
 21
25.97597597700739
 31
0.0
 12
10.60742837758412
 22
25.99097597700739
 32
0.0
 13
10.60742837758412
 23
25.99097597700739
 33
0.0
  0
SOLID
  5
ADB
330
AD5
100
AcDbEntity
  8
EXT
 62
     0
100
AcDbTrace
 10
10.82242837758411
 20
26.00597597700739
 30
0.0
 11
10.82242837758411
 21
25.97597597700739
 31
0.0
 12
10.73242837758412
 22
25.99097597700739
 32
0.0
 13
10.73242837758412
 23
25.99097597700739
 33
0.0
  0
MTEXT
  5
ADC
330
AD5
100
AcDbEntity
  8
EXT
 62
     0
100
AcDbMText
 10
11.15242837758412
 20
25.99097597700739
 30
0.0
 40
0.09
 41
0.0
 71
     5
 72
     1
  1
\A1;0.1250
 73
     1
 44
1.0
  0
POINT
  5
ADD
330
AD5
100
AcDbEntity
  8
Defpoints
 62
     0
100
AcDbPoint
 10
10.60742837758412
 20
26.28847557326731
 30
0.0
  0
POINT
  5
ADE
330
AD5
100
AcDbEntity
  8
Defpoints
 62
     0
100
AcDbPoint
 10
10.73242837758412
 20
26.28847557326731
 30
0.0
  0
POINT
  5
ADF
330
AD5
100
AcDbEntity
  8
Defpoints
 62
     0
100
AcDbPoint
 10
10.73242837758412
 20
25.99097597700739
 30
0.0
  0
ENDBLK
  5
AE1
330
AD5
100
AcDbEntity
  8
0
100
AcDbBlockEnd
  0
BLOCK
  5
B28
330
B1D
100
AcDbEntity
  8
0
100
AcDbBlockBegin
  2
*D31
 70
     1
 10
0.0
 20
0.0
 30
0.0
  3
*D31
  1

  0
LINE
  5
B1E
330
B1D
100
AcDbEntity
  8
EXT
 62
     0
370
    -2
100
AcDbLine
 10
7.643207415454691
 20
26.27246965486928
 30
0.0
 11
7.643207415454691
 21
25.47626106582074
 31
0.0
  0
LINE
  5
B1F
330
B1D
100
AcDbEntity
  8
EXT
 62
     0
370
    -2
100
AcDbLine
 10
9.643207415454691
 20
26.27246965486928
 30
0.0
 11
9.643207415454691
 21
25.47626106582074
 31
0.0
  0
LINE
  5
B20
330
B1D
100
AcDbEntity
  8
EXT
 62
     0
370
    -2
100
AcDbLine
 10
7.733207415454691
 20
25.56626106582074
 30
0.0
 11
8.403207415454691
 21
25.56626106582074
 31
0.0
  0
LINE
  5
B21
330
B1D
100
AcDbEntity
  8
EXT
 62
     0
370
    -2
100
AcDbLine
 10
9.553207415454691
 20
25.56626106582074
 30
0.0
 11
8.883207415454691
 21
25.56626106582074
 31
0.0
  0
SOLID
  5
B22
330
B1D
100
AcDbEntity
  8
EXT
 62
     0
100
AcDbTrace
 10
7.733207415454691
 20
25.58126106582074
 30
0.0
 11
7.733207415454691
 21
25.55126106582074
 31
0.0
 12
7.643207415454691
 22
25.56626106582074
 32
0.0
 13
7.643207415454691
 23
25.56626106582074
 33
0.0
  0
SOLID
  5
B23
330
B1D
100
AcDbEntity
  8
EXT
 62
     0
100
AcDbTrace
 10
9.553207415454691
 20
25.58126106582074
 30
0.0
 11
9.553207415454691
 21
25.55126106582074
 31
0.0
 12
9.643207415454691
 22
25.56626106582074
 32
0.0
 13
9.643207415454691
 23
25.56626106582074
 33
0.0
  0
MTEXT
  5
B24
330
B1D
100
AcDbEntity
  8
EXT
 62
     0
100
AcDbMText
 10
8.643207415454691
 20
25.56626106582074
 30
0.0
 40
0.09
 41
0.0
 71
     5
 72
     1
  1
\A1;2.0000
 73
     1
 44
1.0
  0
POINT
  5
B25
330
B1D
100
AcDbEntity
  8
Defpoints
 62
     0
100
AcDbPoint
 10
7.643207415454691
 20
26.30371965486928
 30
0.0
  0
POINT
  5
B26
330
B1D
100
AcDbEntity
  8
Defpoints
 62
     0
100
AcDbPoint
 10
9.643207415454691
 20
26.30371965486928
 30
0.0
  0
POINT
  5
B27
330
B1D
100
AcDbEntity
  8
Defpoints
 62
     0
100
AcDbPoint
 10
9.643207415454691
 20
25.56626106582074
 30
0.0
  0
ENDBLK
  5
B29
330
B1D
100
AcDbEntity
  8
0
100
AcDbBlockEnd
  0
BLOCK
  5
B35
330
B2A
100
AcDbEntity
  8
0
100
AcDbBlockBegin
  2
*D32
 70
     1
 10
0.0
 20
0.0
 30
0.0
  3
*D32
  1

  0
LINE
  5
B2B
330
B2A
100
AcDbEntity
  8
EXT
 62
     0
370
    -2
100
AcDbLine
 10
9.14321809221496
 20
28.23212557326732
 30
0.0
 11
9.14321809221496
 21
29.76061292197233
 31
0.0
  0
LINE
  5
B2C
330
B2A
100
AcDbEntity
  8
EXT
 62
     0
370
    -2
100
AcDbLine
 10
10.13542837758411
 20
27.76952557326731
 30
0.0
 11
10.13542837758411
 21
29.76061292197233
 31
0.0
  0
LINE
  5
B2D
330
B2A
100
AcDbEntity
  8
EXT
 62
     0
370
    -2
100
AcDbLine
 10
9.23321809221496
 20
29.67061292197233
 30
0.0
 11
9.376823234899539
 21
29.67061292197233
 31
0.0
  0
LINE
  5
B2E
330
B2A
100
AcDbEntity
  8
EXT
 62
     0
370
    -2
100
AcDbLine
 10
10.04542837758412
 20
29.67061292197233
 30
0.0
 11
9.901823234899538
 21
29.67061292197233
 31
0.0
  0
SOLID
  5
B2F
330
B2A
100
AcDbEntity
  8
EXT
 62
     0
100
AcDbTrace
 10
9.23321809221496
 20
29.68561292197233
 30
0.0
 11
9.23321809221496
 21
29.65561292197233
 31
0.0
 12
9.14321809221496
 22
29.67061292197233
 32
0.0
 13
9.14321809221496
 23
29.67061292197233
 33
0.0
  0
SOLID
  5
B30
330
B2A
100
AcDbEntity
  8
EXT
 62
     0
100
AcDbTrace
 10
10.04542837758412
 20
29.68561292197233
 30
0.0
 11
10.04542837758412
 21
29.65561292197233
 31
0.0
 12
10.13542837758411
 22
29.67061292197233
 32
0.0
 13
10.13542837758411
 23
29.67061292197233
 33
0.0
  0
MTEXT
  5
B31
330
B2A
100
AcDbEntity
  8
EXT
 62
     0
100
AcDbMText
 10
9.639323234899539
 20
29.67061292197233
 30
0.0
 40
0.09
 41
0.0
 71
     5
 72
     1
  1
\A1;0.9922
 73
     1
 44
1.0
  0
POINT
  5
B32
330
B2A
100
AcDbEntity
  8
Defpoints
 62
     0
100
AcDbPoint
 10
9.14321809221496
 20
28.20087557326731
 30
0.0
  0
POINT
  5
B33
330
B2A
100
AcDbEntity
  8
Defpoints
 62
     0
100
AcDbPoint
 10
10.13542837758411
 20
27.73827557326732
 30
0.0
  0
POINT
  5
B34
330
B2A
100
AcDbEntity
  8
Defpoints
 62
     0
100
AcDbPoint
 10
10.13542837758411
 20
29.67061292197233
 30
0.0
  0
ENDBLK
  5
B36
330
B2A
100
AcDbEntity
  8
0
100
AcDbBlockEnd
  0
BLOCK
  5
B42
330
B37
100
AcDbEntity
  8
0
100
AcDbBlockBegin
  2
*D33
 70
     1
 10
0.0
 20
0.0
 30
0.0
  3
*D33
  1

  0
LINE
  5
B38
330
B37
100
AcDbEntity
  8
EXT
 62
     0
370
    -2
100
AcDbLine
 10
11.17317837758411
 20
27.73827557326732
 30
0.0
 11
10.77338214973628
 21
27.73827557326732
 31
0.0
  0
LINE
  5
B39
330
B37
100
AcDbEntity
  8
EXT
 62
     0
370
    -2
100
AcDbLine
 10
11.17317837758411
 20
26.16347557326731
 30
0.0
 11
10.77338214973628
 21
26.16347557326731
 31
0.0
  0
LINE
  5
B3A
330
B37
100
AcDbEntity
  8
EXT
 62
     0
370
    -2
100
AcDbLine
 10
10.86338214973628
 20
27.64827557326732
 30
0.0
 11
10.86338214973628
 21
27.04087557326731
 31
0.0
  0
LINE
  5
B3B
330
B37
100
AcDbEntity
  8
EXT
 62
     0
370
    -2
100
AcDbLine
 10
10.86338214973628
 20
26.25347557326731
 30
0.0
 11
10.86338214973628
 21
26.86087557326731
 31
0.0
  0
SOLID
  5
B3C
330
B37
100
AcDbEntity
  8
EXT
 62
     0
100
AcDbTrace
 10
10.84838214973628
 20
27.64827557326732
 30
0.0
 11
10.87838214973628
 21
27.64827557326732
 31
0.0
 12
10.86338214973628
 22
27.73827557326732
 32
0.0
 13
10.86338214973628
 23
27.73827557326732
 33
0.0
  0
SOLID
  5
B3D
330
B37
100
AcDbEntity
  8
EXT
 62
     0
100
AcDbTrace
 10
10.84838214973628
 20
26.25347557326731
 30
0.0
 11
10.87838214973628
 21
26.25347557326731
 31
0.0
 12
10.86338214973628
 22
26.16347557326731
 32
0.0
 13
10.86338214973628
 23
26.16347557326731
 33
0.0
  0
MTEXT
  5
B3E
330
B37
100
AcDbEntity
  8
EXT
 62
     0
100
AcDbMText
 10
10.86338214973627
 20
26.95087557326732
 30
0.0
 40
0.09
 41
0.0
 71
     5
 72
     1
  1
\A1;1.5748
 73
     1
 44
1.0
  0
POINT
  5
B3F
330
B37
100
AcDbEntity
  8
Defpoints
 62
     0
100
AcDbPoint
 10
11.20442837758411
 20
27.73827557326732
 30
0.0
  0
POINT
  5
B40
330
B37
100
AcDbEntity
  8
Defpoints
 62
     0
100
AcDbPoint
 10
11.20442837758411
 20
26.16347557326731
 30
0.0
  0
POINT
  5
B41
330
B37
100
AcDbEntity
  8
Defpoints
 62
     0
100
AcDbPoint
 10
10.86338214973628
 20
26.16347557326731
 30
0.0
  0
ENDBLK
  5
B43
330
B37
100
AcDbEntity
  8
0
100
AcDbBlockEnd
  0
BLOCK
  5
B4F
330
B44
100
AcDbEntity
  8
0
100
AcDbBlockBegin
  2
*D34
 70
     1
 10
0.0
 20
0.0
 30
0.0
  3
*D34
  1

  0
LINE
  5
B45
330
B44
100
AcDbEntity
  8
EXT
 62
     0
370
    -2
100
AcDbLine
 10
11.31328062664808
 20
27.73437557326731
 30
0.0
 11
11.65833454258955
 21
27.73437557326731
 31
0.0
  0
LINE
  5
B46
330
B44
100
AcDbEntity
  8
EXT
 62
     0
370
    -2
100
AcDbLine
 10
11.31328062664807
 20
26.16737557326731
 30
0.0
 11
11.65833454258955
 21
26.16737557326731
 31
0.0
  0
LINE
  5
B47
330
B44
100
AcDbEntity
  8
EXT
 62
     0
370
    -2
100
AcDbLine
 10
11.56833454258955
 20
27.64437557326731
 30
0.0
 11
11.56833454258955
 21
27.04087557326731
 31
0.0
  0
LINE
  5
B48
330
B44
100
AcDbEntity
  8
EXT
 62
     0
370
    -2
100
AcDbLine
 10
11.56833454258955
 20
26.25737557326731
 30
0.0
 11
11.56833454258955
 21
26.86087557326731
 31
0.0
  0
SOLID
  5
B49
330
B44
100
AcDbEntity
  8
EXT
 62
     0
100
AcDbTrace
 10
11.55333454258955
 20
27.64437557326731
 30
0.0
 11
11.58333454258955
 21
27.64437557326731
 31
0.0
 12
11.56833454258955
 22
27.73437557326731
 32
0.0
 13
11.56833454258955
 23
27.73437557326731
 33
0.0
  0
SOLID
  5
B4A
330
B44
100
AcDbEntity
  8
EXT
 62
     0
100
AcDbTrace
 10
11.55333454258955
 20
26.25737557326731
 30
0.0
 11
11.58333454258955
 21
26.25737557326731
 31
0.0
 12
11.56833454258955
 22
26.16737557326731
 32
0.0
 13
11.56833454258955
 23
26.16737557326731
 33
0.0
  0
MTEXT
  5
B4B
330
B44
100
AcDbEntity
  8
EXT
 62
     0
100
AcDbMText
 10
11.56833454258955
 20
26.95087557326731
 30
0.0
 40
0.09
 41
0.0
 71
     5
 72
     1
  1
\A1;1.5670
 73
     1
 44
1.0
  0
POINT
  5
B4C
330
B44
100
AcDbEntity
  8
Defpoints
 62
     0
100
AcDbPoint
 10
11.28203062664808
 20
27.73437557326731
 30
0.0
  0
POINT
  5
B4D
330
B44
100
AcDbEntity
  8
Defpoints
 62
     0
100
AcDbPoint
 10
11.28203062664807
 20
26.16737557326731
 30
0.0
  0
POINT
  5
B4E
330
B44
100
AcDbEntity
  8
Defpoints
 62
     0
100
AcDbPoint
 10
11.56833454258955
 20
26.16737557326731
 30
0.0
  0
ENDBLK
  5
B50
330
B44
100
AcDbEntity
  8
0
100
AcDbBlockEnd
  0
BLOCK
  5
B5C
330
B51
100
AcDbEntity
  8
0
100
AcDbBlockBegin
  2
*D35
 70
     1
 10
0.0
 20
0.0
 30
0.0
  3
*D35
  1

  0
LINE
  5
BF9
330
B51
100
AcDbEntity
  8
EXT
 62
     0
370
    -2
100
AcDbLine
 10
10.83803062664807
 20
27.9178243461635
 30
0.0
 11
10.83803062664807
 21
28.55110013087154
 31
0.0
  0
LINE
  5
BFA
330
B51
100
AcDbEntity
  8
EXT
 62
     0
370
    -2
100
AcDbLine
 10
11.83803062664807
 20
27.9178243461635
 30
0.0
 11
11.83803062664807
 21
28.55110013087154
 31
0.0
  0
LINE
  5
BFB
330
B51
100
AcDbEntity
  8
EXT
 62
     0
370
    -2
100
AcDbLine
 10
10.92803062664807
 20
28.46110013087154
 30
0.0
 11
11.11303062664807
 21
28.46110013087154
 31
0.0
  0
LINE
  5
BFC
330
B51
100
AcDbEntity
  8
EXT
 62
     0
370
    -2
100
AcDbLine
 10
11.74803062664807
 20
28.46110013087154
 30
0.0
 11
11.56303062664807
 21
28.46110013087154
 31
0.0
  0
SOLID
  5
BFD
330
B51
100
AcDbEntity
  8
EXT
 62
     0
100
AcDbTrace
 10
10.92803062664807
 20
28.47610013087154
 30
0.0
 11
10.92803062664807
 21
28.44610013087154
 31
0.0
 12
10.83803062664807
 22
28.46110013087154
 32
0.0
 13
10.83803062664807
 23
28.46110013087154
 33
0.0
  0
SOLID
  5
BFE
330
B51
100
AcDbEntity
  8
EXT
 62
     0
100
AcDbTrace
 10
11.74803062664807
 20
28.47610013087154
 30
0.0
 11
11.74803062664807
 21
28.44610013087154
 31
0.0
 12
11.83803062664807
 22
28.46110013087154
 32
0.0
 13
11.83803062664807
 23
28.46110013087154
 33
0.0
  0
MTEXT
  5
BFF
330
B51
100
AcDbEntity
  8
EXT
 62
     0
100
AcDbMText
 10
11.33803062664807
 20
28.46110013087154
 30
0.0
 40
0.09
 41
0.0
 71
     5
 72
     1
  1
\A1;1.0000
 73
     1
 44
1.0
  0
POINT
  5
C00
330
B51
100
AcDbEntity
  8
Defpoints
 62
     0
100
AcDbPoint
 10
10.83803062664807
 20
27.8865743461635
 30
0.0
  0
POINT
  5
C01
330
B51
100
AcDbEntity
  8
Defpoints
 62
     0
100
AcDbPoint
 10
11.83803062664807
 20
27.8865743461635
 30
0.0
  0
POINT
  5
C02
330
B51
100
AcDbEntity
  8
Defpoints
 62
     0
100
AcDbPoint
 10
11.83803062664807
 20
28.46110013087154
 30
0.0
  0
ENDBLK
  5
B5D
330
B51
100
AcDbEntity
  8
0
100
AcDbBlockEnd
  0
BLOCK
  5
B92
330
B87
100
AcDbEntity
  8
0
100
AcDbBlockBegin
  2
*D36
 70
     1
 10
0.0
 20
0.0
 30
0.0
  3
*D36
  1

  0
LINE
  5
B94
330
B87
100
AcDbEntity
  8
EXT
 62
     0
370
    -2
100
AcDbLine
 10
10.83803062664807
 20
25.79462557326731
 30
0.0
 11
10.83803062664807
 21
25.16134978855928
 31
0.0
  0
LINE
  5
B95
330
B87
100
AcDbEntity
  8
EXT
 62
     0
370
    -2
100
AcDbLine
 10
11.83803062664807
 20
25.79462557326731
 30
0.0
 11
11.83803062664807
 21
25.16134978855928
 31
0.0
  0
LINE
  5
B96
330
B87
100
AcDbEntity
  8
EXT
 62
     0
370
    -2
100
AcDbLine
 10
10.92803062664807
 20
25.25134978855928
 30
0.0
 11
11.11303062664807
 21
25.25134978855928
 31
0.0
  0
LINE
  5
B97
330
B87
100
AcDbEntity
  8
EXT
 62
     0
370
    -2
100
AcDbLine
 10
11.74803062664807
 20
25.25134978855928
 30
0.0
 11
11.56303062664807
 21
25.25134978855928
 31
0.0
  0
SOLID
  5
B98
330
B87
100
AcDbEntity
  8
EXT
 62
     0
100
AcDbTrace
 10
10.92803062664807
 20
25.26634978855928
 30
0.0
 11
10.92803062664807
 21
25.23634978855928
 31
0.0
 12
10.83803062664807
 22
25.25134978855928
 32
0.0
 13
10.83803062664807
 23
25.25134978855928
 33
0.0
  0
SOLID
  5
B99
330
B87
100
AcDbEntity
  8
EXT
 62
     0
100
AcDbTrace
 10
11.74803062664807
 20
25.26634978855928
 30
0.0
 11
11.74803062664807
 21
25.23634978855928
 31
0.0
 12
11.83803062664807
 22
25.25134978855928
 32
0.0
 13
11.83803062664807
 23
25.25134978855928
 33
0.0
  0
MTEXT
  5
B9A
330
B87
100
AcDbEntity
  8
EXT
 62
     0
100
AcDbMText
 10
11.33803062664807
 20
25.25134978855928
 30
0.0
 40
0.09
 41
0.0
 71
     5
 72
     1
  1
\A1;1.0000
 73
     1
 44
1.0
  0
POINT
  5
B9B
330
B87
100
AcDbEntity
  8
Defpoints
 62
     0
100
AcDbPoint
 10
10.83803062664807
 20
25.82587557326732
 30
0.0
  0
POINT
  5
B9C
330
B87
100
AcDbEntity
  8
Defpoints
 62
     0
100
AcDbPoint
 10
11.83803062664807
 20
25.82587557326732
 30
0.0
  0
POINT
  5
B9D
330
B87
100
AcDbEntity
  8
Defpoints
 62
     0
100
AcDbPoint
 10
11.83803062664807
 20
25.25134978855928
 30
0.0
  0
ENDBLK
  5
B93
330
B87
100
AcDbEntity
  8
0
100
AcDbBlockEnd
  0
BLOCK
  5
BD4
330
BC9
100
AcDbEntity
  8
0
100
AcDbBlockBegin
  2
*D37
 70
     1
 10
0.0
 20
0.0
 30
0.0
  3
*D37
  1

  0
LINE
  5
BE5
330
BC9
100
AcDbEntity
  8
EXT
  6
Continuous
 62
     0
370
    -2
100
AcDbLine
 10
13.53203062664807
 20
27.70312557326731
 30
0.0
 11
13.53203062664807
 21
27.04045735981148
 31
0.0
  0
LINE
  5
BE6
330
BC9
100
AcDbEntity
  8
EXT
  6
Continuous
 62
     0
370
    -2
100
AcDbLine
 10
22.12592141169599
 20
27.71853524828784
 30
0.0
 11
22.12592141169599
 21
27.04045735981148
 31
0.0
  0
LINE
  5
BE7
330
BC9
100
AcDbEntity
  8
EXT
  6
Continuous
 62
     0
370
    -2
100
AcDbLine
 10
13.62203062664807
 20
27.13045735981148
 30
0.0
 11
17.55897601917204
 21
27.13045735981148
 31
0.0
  0
LINE
  5
BE8
330
BC9
100
AcDbEntity
  8
EXT
  6
Continuous
 62
     0
370
    -2
100
AcDbLine
 10
22.035921411696
 20
27.13045735981148
 30
0.0
 11
18.09897601917203
 21
27.13045735981148
 31
0.0
  0
SOLID
  5
BE9
330
BC9
100
AcDbEntity
  8
EXT
  6
Continuous
 62
     0
100
AcDbTrace
 10
13.62203062664807
 20
27.14545735981148
 30
0.0
 11
13.62203062664807
 21
27.11545735981148
 31
0.0
 12
13.53203062664807
 22
27.13045735981148
 32
0.0
 13
13.53203062664807
 23
27.13045735981148
 33
0.0
  0
SOLID
  5
BEA
330
BC9
100
AcDbEntity
  8
EXT
  6
Continuous
 62
     0
100
AcDbTrace
 10
22.035921411696
 20
27.14545735981148
 30
0.0
 11
22.035921411696
 21
27.11545735981148
 31
0.0
 12
22.12592141169599
 22
27.13045735981148
 32
0.0
 13
22.12592141169599
 23
27.13045735981148
 33
0.0
  0
MTEXT
  5
BEB
330
BC9
100
AcDbEntity
  8
EXT
  6
Continuous
 62
     0
100
AcDbMText
 10
17.82897601917204
 20
27.13045735981148
 30
0.0
 40
0.09
 41
0.0
 71
     5
 72
     1
  1
\A1;8.5939
 73
     1
 44
1.0
  0
POINT
  5
BEC
330
BC9
100
AcDbEntity
  8
Defpoints
  6
Continuous
 62
     0
100
AcDbPoint
 10
13.53203062664807
 20
27.73437557326731
 30
0.0
  0
POINT
  5
BED
330
BC9
100
AcDbEntity
  8
Defpoints
  6
Continuous
 62
     0
100
AcDbPoint
 10
22.12592141169599
 20
27.74978524828785
 30
0.0
  0
POINT
  5
BEE
330
BC9
100
AcDbEntity
  8
Defpoints
  6
Continuous
 62
     0
100
AcDbPoint
 10
22.12592141169599
 20
27.13045735981148
 30
0.0
  0
ENDBLK
  5
BD5
330
BC9
100
AcDbEntity
  8
0
100
AcDbBlockEnd
  0
BLOCK
  5
C0F
330
C04
100
AcDbEntity
  8
0
100
AcDbBlockBegin
  2
*D38
 70
     1
 10
0.0
 20
0.0
 30
0.0
  3
*D38
  1

  0
LINE
  5
C12
330
C04
100
AcDbEntity
  8
EXT
  6
Continuous
 62
     0
370
    -2
100
AcDbLine
 10
10.83803062664807
 20
28.63880153872127
 30
0.0
 11
10.83803062664807
 21
28.85920471384524
 31
0.0
  0
LINE
  5
C13
330
C04
100
AcDbEntity
  8
EXT
  6
Continuous
 62
     0
370
    -2
100
AcDbLine
 10
14.83803062664807
 20
28.63880153872127
 30
0.0
 11
14.83803062664807
 21
28.85920471384524
 31
0.0
  0
LINE
  5
C14
330
C04
100
AcDbEntity
  8
EXT
  6
Continuous
 62
     0
370
    -2
100
AcDbLine
 10
10.92803062664807
 20
28.76920471384524
 30
0.0
 11
12.59803062664808
 21
28.76920471384524
 31
0.0
  0
LINE
  5
C15
330
C04
100
AcDbEntity
  8
EXT
  6
Continuous
 62
     0
370
    -2
100
AcDbLine
 10
14.74803062664808
 20
28.76920471384524
 30
0.0
 11
13.07803062664808
 21
28.76920471384524
 31
0.0
  0
SOLID
  5
C16
330
C04
100
AcDbEntity
  8
EXT
  6
Continuous
 62
     0
100
AcDbTrace
 10
10.92803062664807
 20
28.78420471384524
 30
0.0
 11
10.92803062664807
 21
28.75420471384524
 31
0.0
 12
10.83803062664807
 22
28.76920471384524
 32
0.0
 13
10.83803062664807
 23
28.76920471384524
 33
0.0
  0
SOLID
  5
C17
330
C04
100
AcDbEntity
  8
EXT
  6
Continuous
 62
     0
100
AcDbTrace
 10
14.74803062664808
 20
28.78420471384524
 30
0.0
 11
14.74803062664808
 21
28.75420471384524
 31
0.0
 12
14.83803062664807
 22
28.76920471384524
 32
0.0
 13
14.83803062664807
 23
28.76920471384524
 33
0.0
  0
MTEXT
  5
C18
330
C04
100
AcDbEntity
  8
EXT
  6
Continuous
 62
     0
100
AcDbMText
 10
12.83803062664808
 20
28.76920471384524
 30
0.0
 40
0.09
 41
0.0
 71
     5
 72
     1
  1
\A1;4.0000
 73
     1
 44
1.0
  0
POINT
  5
C19
330
C04
100
AcDbEntity
  8
Defpoints
  6
Continuous
 62
     0
100
AcDbPoint
 10
10.83803062664807
 20
28.60755153872127
 30
0.0
  0
POINT
  5
C1A
330
C04
100
AcDbEntity
  8
Defpoints
  6
Continuous
 62
     0
100
AcDbPoint
 10
14.83803062664807
 20
28.60755153872127
 30
0.0
  0
POINT
  5
C1B
330
C04
100
AcDbEntity
  8
Defpoints
  6
Continuous
 62
     0
100
AcDbPoint
 10
14.83803062664807
 20
28.76920471384524
 30
0.0
  0
ENDBLK
  5
C10
330
C04
100
AcDbEntity
  8
0
100
AcDbBlockEnd
  0
BLOCK
  5
C2E
330
C23
100
AcDbEntity
  8
0
100
AcDbBlockBegin
  2
*D39
 70
     1
 10
0.0
 20
0.0
 30
0.0
  3
*D39
  1

  0
LINE
  5
C31
330
C23
100
AcDbEntity
  8
EXT
  6
Continuous
 62
     0
370
    -2
100
AcDbLine
 10
22.12592141169599
 20
27.78103524828785
 30
0.0
 11
22.12592141169599
 21
28.10800642425315
 31
0.0
  0
LINE
  5
C32
330
C23
100
AcDbEntity
  8
EXT
  6
Continuous
 62
     0
370
    -2
100
AcDbLine
 10
26.87592141169599
 20
27.78103524828785
 30
0.0
 11
26.87592141169599
 21
28.10800642425315
 31
0.0
  0
LINE
  5
C33
330
C23
100
AcDbEntity
  8
EXT
  6
Continuous
 62
     0
370
    -2
100
AcDbLine
 10
22.21592141169599
 20
28.01800642425315
 30
0.0
 11
24.245921411696
 21
28.01800642425315
 31
0.0
  0
LINE
  5
C34
330
C23
100
AcDbEntity
  8
EXT
  6
Continuous
 62
     0
370
    -2
100
AcDbLine
 10
26.785921411696
 20
28.01800642425315
 30
0.0
 11
24.75592141169599
 21
28.01800642425315
 31
0.0
  0
SOLID
  5
C35
330
C23
100
AcDbEntity
  8
EXT
  6
Continuous
 62
     0
100
AcDbTrace
 10
22.21592141169599
 20
28.03300642425315
 30
0.0
 11
22.21592141169599
 21
28.00300642425315
 31
0.0
 12
22.12592141169599
 22
28.01800642425315
 32
0.0
 13
22.12592141169599
 23
28.01800642425315
 33
0.0
  0
SOLID
  5
C36
330
C23
100
AcDbEntity
  8
EXT
  6
Continuous
 62
     0
100
AcDbTrace
 10
26.785921411696
 20
28.03300642425315
 30
0.0
 11
26.785921411696
 21
28.00300642425315
 31
0.0
 12
26.87592141169599
 22
28.01800642425315
 32
0.0
 13
26.87592141169599
 23
28.01800642425315
 33
0.0
  0
MTEXT
  5
C37
330
C23
100
AcDbEntity
  8
EXT
  6
Continuous
 62
     0
100
AcDbMText
 10
24.500921411696
 20
28.01800642425315
 30
0.0
 40
0.09
 41
0.0
 71
     5
 72
     1
  1
\A1;4.7500
 73
     1
 44
1.0
  0
POINT
  5
C38
330
C23
100
AcDbEntity
  8
Defpoints
  6
Continuous
 62
     0
100
AcDbPoint
 10
22.12592141169599
 20
27.74978524828785
 30
0.0
  0
POINT
  5
C39
330
C23
100
AcDbEntity
  8
Defpoints
  6
Continuous
 62
     0
100
AcDbPoint
 10
26.87592141169599
 20
27.74978524828785
 30
0.0
  0
POINT
  5
C3A
330
C23
100
AcDbEntity
  8
Defpoints
  6
Continuous
 62
     0
100
AcDbPoint
 10
26.87592141169599
 20
28.01800642425315
 30
0.0
  0
ENDBLK
  5
C2F
330
C23
100
AcDbEntity
  8
0
100
AcDbBlockEnd
  0
BLOCK
  5
C4F
330
C44
100
AcDbEntity
  8
0
100
AcDbBlockBegin
  2
*D40
 70
     1
 10
0.0
 20
0.0
 30
0.0
  3
*D40
  1

  0
LINE
  5
C52
330
C44
100
AcDbEntity
  8
EXT
  6
Continuous
 62
     0
370
    -2
100
AcDbLine
 10
10.08803062664807
 20
25.29462557326731
 30
0.0
 11
10.08803062664807
 21
24.89462035211427
 31
0.0
  0
LINE
  5
C53
330
C44
100
AcDbEntity
  8
EXT
  6
Continuous
 62
     0
370
    -2
100
AcDbLine
 10
13.53203062664808
 20
26.13612557326732
 30
0.0
 11
13.53203062664808
 21
24.89462035211427
 31
0.0
  0
LINE
  5
C54
330
C44
100
AcDbEntity
  8
EXT
  6
Continuous
 62
     0
370
    -2
100
AcDbLine
 10
10.17803062664807
 20
24.98462035211427
 30
0.0
 11
11.54753062664807
 21
24.98462035211427
 31
0.0
  0
LINE
  5
C55
330
C44
100
AcDbEntity
  8
EXT
  6
Continuous
 62
     0
370
    -2
100
AcDbLine
 10
13.44203062664808
 20
24.98462035211427
 30
0.0
 11
12.07253062664807
 21
24.98462035211427
 31
0.0
  0
SOLID
  5
C56
330
C44
100
AcDbEntity
  8
EXT
  6
Continuous
 62
     0
100
AcDbTrace
 10
10.17803062664807
 20
24.99962035211427
 30
0.0
 11
10.17803062664807
 21
24.96962035211427
 31
0.0
 12
10.08803062664807
 22
24.98462035211427
 32
0.0
 13
10.08803062664807
 23
24.98462035211427
 33
0.0
  0
SOLID
  5
C57
330
C44
100
AcDbEntity
  8
EXT
  6
Continuous
 62
     0
100
AcDbTrace
 10
13.44203062664808
 20
24.99962035211427
 30
0.0
 11
13.44203062664808
 21
24.96962035211427
 31
0.0
 12
13.53203062664808
 22
24.98462035211427
 32
0.0
 13
13.53203062664808
 23
24.98462035211427
 33
0.0
  0
MTEXT
  5
C58
330
C44
100
AcDbEntity
  8
EXT
  6
Continuous
 62
     0
100
AcDbMText
 10
11.81003062664807
 20
24.98462035211427
 30
0.0
 40
0.09
 41
0.0
 71
     5
 72
     1
  1
\A1;3.4440
 73
     1
 44
1.0
  0
POINT
  5
C59
330
C44
100
AcDbEntity
  8
Defpoints
  6
Continuous
 62
     0
100
AcDbPoint
 10
10.08803062664807
 20
25.32587557326731
 30
0.0
  0
POINT
  5
C5A
330
C44
100
AcDbEntity
  8
Defpoints
  6
Continuous
 62
     0
100
AcDbPoint
 10
13.53203062664808
 20
26.16737557326731
 30
0.0
  0
POINT
  5
C5B
330
C44
100
AcDbEntity
  8
Defpoints
  6
Continuous
 62
     0
100
AcDbPoint
 10
13.53203062664808
 20
24.98462035211427
 30
0.0
  0
ENDBLK
  5
C50
330
C44
100
AcDbEntity
  8
0
100
AcDbBlockEnd
  0
ENDSEC
  0
SECTION
  2
ENTITIES
  0
LINE
  5
74
102
{ACAD_REACTORS
330
11E
330
737
330
75C
102
}
330
1F
100
AcDbEntity
  8
0
100
AcDbLine
 10
6.635682164656708
 20
11.5137250031803
 30
0.0
 11
9.596748396240776
 21
11.5137250031803
 31
0.0
  0
LINE
  5
75
102
{ACAD_REACTORS
330
11E
102
}
330
1F
100
AcDbEntity
  8
0
100
AcDbLine
 10
6.635682164656709
 20
11.0137250031803
 30
0.0
 11
9.596748396240776
 21
11.0137250031803
 31
0.0
  0
LINE
  5
76
102
{ACAD_REACTORS
330
11E
330
737
102
}
330
1F
100
AcDbEntity
  8
0
100
AcDbLine
 10
6.635682164656708
 20
11.5137250031803
 30
0.0
 11
6.635682164656709
 21
11.0137250031803
 31
0.0
  0
LINE
  5
77
330
1F
100
AcDbEntity
  8
0
100
AcDbLine
 10
9.592342380508711
 20
11.5137250031803
 30
0.0
 11
9.592342380508711
 21
11.5762250031803
 31
0.0
  0
LINE
  5
7A
330
1F
100
AcDbEntity
  8
0
100
AcDbLine
 10
9.592342380508711
 20
11.0137250031803
 30
0.0
 11
9.592342380508711
 21
10.9512250031803
 31
0.0
  0
LINE
  5
7F
330
1F
100
AcDbEntity
  8
0
100
AcDbLine
 10
10.21303062664807
 20
11.5983750031803
 30
0.0
 11
11.21953062664807
 21
11.5983750031803
 31
0.0
  0
LINE
  5
80
330
1F
100
AcDbEntity
  8
0
100
AcDbLine
 10
11.21953062664807
 20
11.5983750031803
 30
0.0
 11
11.21953062664807
 21
11.7233750031803
 31
0.0
  0
LINE
  5
81
102
{ACAD_REACTORS
330
790
102
}
330
1F
100
AcDbEntity
  8
0
100
AcDbLine
 10
11.21953062664807
 20
11.7233750031803
 30
0.0
 11
11.28203062664807
 21
11.7233750031803
 31
0.0
  0
LINE
  5
83
102
{ACAD_REACTORS
330
790
102
}
330
1F
100
AcDbEntity
  8
0
100
AcDbLine
 10
11.28203062664807
 20
11.7233750031803
 30
0.0
 11
11.28203062664807
 21
12.0472250031803
 31
0.0
  0
LINE
  5
87
330
1F
100
AcDbEntity
  8
0
100
AcDbLine
 10
11.28203062664807
 20
12.0472250031803
 30
0.0
 11
15.03203062664807
 21
12.0472250031803
 31
0.0
  0
LINE
  5
89
102
{ACAD_REACTORS
330
25F
330
91E
102
}
330
1F
100
AcDbEntity
  8
0
100
AcDbLine
 10
11.28203062664807
 20
10.4802250031803
 30
0.0
 11
15.03203062664807
 21
10.4802250031803
 31
0.0
  0
LINE
  5
8A
330
1F
100
AcDbEntity
  8
0
100
AcDbLine
 10
11.28203062664807
 20
10.8040750031803
 30
0.0
 11
11.28203062664807
 21
10.4802250031803
 31
0.0
  0
LINE
  5
8D
330
1F
100
AcDbEntity
  8
0
100
AcDbLine
 10
11.21953062664807
 20
10.9290750031803
 30
0.0
 11
11.21953062664807
 21
10.8040750031803
 31
0.0
  0
LINE
  5
8E
330
1F
100
AcDbEntity
  8
0
100
AcDbLine
 10
11.21953062664807
 20
10.8040750031803
 30
0.0
 11
11.28203062664807
 21
10.8040750031803
 31
0.0
  0
LINE
  5
91
102
{ACAD_REACTORS
330
1B8
102
}
330
1F
100
AcDbEntity
  8
0
100
AcDbLine
 10
15.03203062664807
 20
12.0472250031803
 30
0.0
 11
15.03203062664808
 21
11.64672088253857
 31
0.0
  0
LINE
  5
92
102
{ACAD_REACTORS
330
25F
330
91E
102
}
330
1F
100
AcDbEntity
  8
0
100
AcDbLine
 10
15.03203062664807
 20
10.4802250031803
 30
0.0
 11
15.03203062664808
 21
10.9052250031803
 31
0.0
  0
LINE
  5
94
330
1F
100
AcDbEntity
  8
0
100
AcDbLine
 10
15.03203062664807
 20
11.6222250031803
 30
0.0
 11
13.60433494263674
 21
11.6222250031803
 31
0.0
  0
LINE
  5
95
330
1F
100
AcDbEntity
  8
0
100
AcDbLine
 10
15.03203062664808
 20
10.9052250031803
 30
0.0
 11
12.03203062664807
 21
10.9052250031803
 31
0.0
  0
LINE
  5
96
102
{ACAD_REACTORS
330
1B8
102
}
330
1F
100
AcDbEntity
  8
0
100
AcDbLine
 10
15.03203062664807
 20
11.6222250031803
 30
0.0
 11
12.03203062664807
 21
11.6222250031803
 31
0.0
  0
LINE
  5
97
102
{ACAD_REACTORS
330
1B8
102
}
330
1F
100
AcDbEntity
  8
0
100
AcDbLine
 10
12.03203062664807
 20
11.6222250031803
 30
0.0
 11
12.03203062664807
 21
10.9052250031803
 31
0.0
  0
DIMENSION
  5
105
102
{ACAD_XDICTIONARY
360
113
102
}
102
{ACAD_REACTORS
330
11E
102
}
330
1F
100
AcDbEntity
  8
EXT
100
AcDbDimension
  2
*D1
 10
5.903596228644
 20
11.0137250031803
 30
0.0
 11
5.903596228643998
 21
11.26372500318031
 31
0.0
 70
    32
 71
     5
 42
0.5
  3
Standard
100
AcDbAlignedDimension
 13
6.635682164656708
 23
11.5137250031803
 33
0.0
 14
6.635682164656708
 24
11.0137250031803
 34
0.0
 50
90.0
100
AcDbRotatedDimension
1001
ACAD
1000
DSTYLE
1002
{
1070
   140
1040
0.1
1002
}
  0
DIMENSION
  5
11F
330
1F
100
AcDbEntity
  8
EXT
100
AcDbDimension
  2
*D2
 10
9.249689066515614
 20
10.9512250031803
 30
0.0
 11
8.746355733182278
 21
10.7712250031803
 31
0.0
 70
    32
 71
     5
 42
0.625
  3
Standard
100
AcDbAlignedDimension
 13
9.679558874329529
 23
11.5762250031803
 33
0.0
 14
9.679558874329529
 24
10.9512250031803
 34
0.0
 50
90.0
100
AcDbRotatedDimension
1001
ACAD
1000
DSTYLE
1002
{
1070
   140
1040
0.1
1002
}
  0
DIMENSION
  5
13B
330
1F
100
AcDbEntity
  8
EXT
100
AcDbDimension
  2
*D3
 10
10.66482305745565
 20
10.9290750031803
 30
0.0
 11
10.15315639078898
 21
10.7490750031803
 31
0.0
 70
    32
 71
     5
 42
0.6692999999999998
  3
Standard
100
AcDbAlignedDimension
 13
10.43466749448737
 23
11.5983750031803
 33
0.0
 14
10.43466749448737
 24
10.9290750031803
 34
0.0
 50
90.0
100
AcDbRotatedDimension
1001
ACAD
1000
DSTYLE
1002
{
1070
   140
1040
0.1
1002
}
  0
DIMENSION
  5
157
330
1F
100
AcDbEntity
  8
EXT
100
AcDbDimension
  2
*D4
 10
11.57759096425037
 20
10.8040750031803
 30
0.0
 11
11.57759096425037
 21
11.2637250031803
 31
0.0
 70
    32
 71
     5
 42
0.9193000000000015
  3
Standard
100
AcDbAlignedDimension
 13
12.28881540656618
 23
11.7233750031803
 33
0.0
 14
11.91981540656618
 24
10.8040750031803
 34
0.0
 50
90.0
100
AcDbRotatedDimension
1001
ACAD
1000
DSTYLE
1002
{
1070
   140
1040
0.1
1002
}
  0
DIMENSION
  5
171
330
1F
100
AcDbEntity
  8
EXT
100
AcDbDimension
  2
*D5
 10
12.03203062664807
 20
9.24497897950372
 30
0.0
 11
11.65703062664807
 21
9.24497897950372
 31
0.0
 70
    32
 71
     5
 42
0.75
  3
Standard
100
AcDbAlignedDimension
 13
11.28203062664807
 23
10.57884824763661
 33
0.0
 14
12.03203062664807
 24
10.47769824763661
 34
0.0
100
AcDbRotatedDimension
1001
ACAD
1000
DSTYLE
1002
{
1070
   140
1040
0.1
1002
}
  0
DIMENSION
  5
19F
102
{ACAD_XDICTIONARY
360
1AD
102
}
102
{ACAD_REACTORS
330
1B8
102
}
330
1F
100
AcDbEntity
  8
EXT
100
AcDbDimension
  2
*D6
 10
15.03203062664807
 20
12.83862608660464
 30
0.0
 11
13.53203062664807
 21
12.83862608660464
 31
0.0
 70
    32
 71
     5
 42
3.0
  3
Standard
100
AcDbAlignedDimension
 13
12.03203062664807
 23
11.6222250031803
 33
0.0
 14
15.03203062664807
 24
11.6222250031803
 34
0.0
100
AcDbRotatedDimension
1001
ACAD
1000
DSTYLE
1002
{
1070
   140
1040
0.1
1002
}
  0
LINE
  5
1BA
330
1F
100
AcDbEntity
  8
0
100
AcDbLine
 10
15.03203062664807
 20
10.87932983868039
 30
0.0
 11
15.03203062664807
 21
10.4802250031803
 31
0.0
  0
DIMENSION
  5
246
102
{ACAD_XDICTIONARY
360
254
102
}
102
{ACAD_REACTORS
330
25F
102
}
330
1F
100
AcDbEntity
  8
EXT
100
AcDbDimension
  2
*D7
 10
15.57589730197605
 20
10.4802250031803
 30
0.0
 11
15.57589730197605
 21
11.2637250031803
 31
0.0
 70
    32
 71
     5
 42
1.567
  3
Standard
100
AcDbAlignedDimension
 13
15.03203062664807
 23
12.0472250031803
 33
0.0
 14
15.03203062664807
 24
10.4802250031803
 34
0.0
 50
90.0
100
AcDbRotatedDimension
1001
ACAD
1000
DSTYLE
1002
{
1070
    40
1040
0.5
1002
}
  0
LINE
  5
261
330
1F
100
AcDbEntity
  8
0
100
AcDbLine
 10
15.03203062664807
 20
11.6222250031803
 30
0.0
 11
15.03203062664807
 21
12.0472250031803
 31
0.0
  0
TEXT
  5
263
330
1F
100
AcDbEntity
  8
0
100
AcDbText
 10
8.913707642263867
 20
8.606884786896376
 30
0.0
 40
0.2
  1
SPINDLE DESIGN FOR CNC MILL CONVERSION
100
AcDbText
  0
DIMENSION
  5
265
330
1F
100
AcDbEntity
  8
EXT
100
AcDbDimension
  2
*D8
 10
13.75255707545049
 20
10.9052250031803
 30
0.0
 11
13.75255707545049
 21
11.2637250031803
 31
0.0
 70
    32
 71
     5
 42
0.716999999999997
  3
Standard
100
AcDbAlignedDimension
 13
13.66123509744075
 23
11.6222250031803
 33
0.0
 14
13.66123509744075
 24
10.9052250031803
 34
0.0
 50
90.0
100
AcDbRotatedDimension
1001
ACAD
1000
DSTYLE
1002
{
1070
    40
1040
0.5
1002
}
  0
TEXT
  5
293
330
1F
100
AcDbEntity
  8
EXT
100
AcDbText
 10
14.10975255066377
 20
11.34270567297924
 30
0.0
 40
0.09
  1
UNMACHINED
100
AcDbText
  0
TEXT
  5
294
330
1F
100
AcDbEntity
  8
EXT
100
AcDbText
 10
14.12952363654877
 20
11.21093771780616
 30
0.0
 40
0.09
  1
BALLSCREW
100
AcDbText
  0
TEXT
  5
295
330
1F
100
AcDbEntity
  8
EXT
100
AcDbText
 10
14.04384892326708
 20
11.07916976263309
 30
0.0
 40
0.09
  1
 PRESS FIT
100
AcDbText
  0
LINE
  5
2CB
330
1F
100
AcDbEntity
  8
0
100
AcDbLine
 10
9.592342380508711
 20
11.5137250031803
 30
0.0
 11
9.592342380508711
 21
11.5762250031803
 31
0.0
  0
LINE
  5
2D8
330
1F
100
AcDbEntity
  8
0
100
AcDbLine
 10
9.592342380508711
 20
11.0137250031803
 30
0.0
 11
9.592342380508711
 21
10.9512250031803
 31
0.0
  0
LINE
  5
2EF
330
1F
100
AcDbEntity
  8
0
100
AcDbLine
 10
10.21303062664807
 20
10.9290750031803
 30
0.0
 11
10.21303062664807
 21
10.9512250031803
 31
0.0
  0
LINE
  5
2F0
330
1F
100
AcDbEntity
  8
0
100
AcDbLine
 10
10.21303062664807
 20
11.5762250031803
 30
0.0
 11
10.21303062664807
 21
11.5983750031803
 31
0.0
  0
LINE
  5
2F4
330
1F
100
AcDbEntity
  8
0
100
AcDbLine
 10
9.592342380508711
 20
11.5137250031803
 30
0.0
 11
9.592342380508711
 21
11.0137250031803
 31
0.0
  0
LINE
  5
2F5
330
1F
100
AcDbEntity
  8
0
100
AcDbLine
 10
10.21303062664807
 20
11.5983750031803
 30
0.0
 11
10.21303062664807
 21
10.9290750031803
 31
0.0
  0
LINE
  5
317
330
1F
100
AcDbEntity
  8
0
100
AcDbLine
 10
9.67907785620296
 20
16.40489016385539
 30
0.0
 11
9.67907785620296
 21
15.90489016385539
 31
0.0
  0
LINE
  5
318
330
1F
100
AcDbEntity
  8
0
100
AcDbLine
 10
10.13542837758411
 20
16.46739016385539
 30
0.0
 11
10.13542837758411
 21
15.84239016385539
 31
0.0
  0
LINE
  5
31F
102
{ACAD_REACTORS
330
7FB
102
}
330
1F
100
AcDbEntity
  8
0
100
AcDbLine
 10
11.28203062664807
 20
16.61454016385539
 30
0.0
 11
11.28203062664808
 21
16.93839016385538
 31
0.0
  0
LINE
  5
321
330
1F
100
AcDbEntity
  8
0
100
AcDbLine
 10
11.21376712706383
 20
15.69524016385539
 30
0.0
 11
11.28203062664807
 21
15.69524016385538
 31
0.0
  0
LINE
  5
322
102
{ACAD_REACTORS
330
7FB
102
}
330
1F
100
AcDbEntity
  8
0
100
AcDbLine
 10
11.28203062664807
 20
15.69524016385538
 30
0.0
 11
11.28203062664807
 21
15.37139016385539
 31
0.0
  0
LINE
  5
33D
102
{ACAD_REACTORS
330
6EA
102
}
330
1F
100
AcDbEntity
  8
0
100
AcDbLine
 10
7.643207415454691
 20
17.90489016385539
 30
0.0
 11
7.643207415454691
 21
14.46672301031514
 31
0.0
  0
LINE
  5
33F
330
1F
100
AcDbEntity
  8
0
100
AcDbLine
 10
6.643207415454691
 20
14.46672301031514
 30
0.0
 11
6.64320741545469
 21
17.91509468747079
 31
0.0
  0
TEXT
  5
340
330
1F
100
AcDbEntity
  8
0
100
AcDbText
 10
7.290253318186368
 20
16.311366727584
 30
0.0
 40
0.09
  1
HAND
 50
90.0
100
AcDbText
  0
TEXT
  5
341
330
1F
100
AcDbEntity
  8
0
100
AcDbText
 10
7.422021273359446
 20
16.22569201430231
 30
0.0
 40
0.09
  1
WHEEL
 50
90.0
100
AcDbText
  0
LINE
  5
342
330
1F
100
AcDbEntity
  8
0
100
AcDbLine
 10
6.573655295104993
 20
17.91509468747079
 30
0.0
 11
7.187476919118831
 21
17.91509468747079
 31
0.0
  0
LINE
  5
343
330
1F
100
AcDbEntity
  8
0
100
AcDbLine
 10
7.187476919118831
 20
17.91509468747079
 30
0.0
 11
7.240090338171649
 21
18.02905625447496
 31
0.0
  0
LINE
  5
344
330
1F
100
AcDbEntity
  8
0
100
AcDbLine
 10
7.240090338171649
 20
18.02905625447496
 30
0.0
 11
7.319010466750876
 21
17.81866570145177
 31
0.0
  0
LINE
  5
345
330
1F
100
AcDbEntity
  8
0
100
AcDbLine
 10
7.319010466750876
 20
17.81866570145177
 30
0.0
 11
7.336548073318192
 21
17.92386097796335
 31
0.0
  0
LINE
  5
346
330
1F
100
AcDbEntity
  8
0
100
AcDbLine
 10
7.336548073318192
 20
17.92386097796335
 30
0.0
 11
7.774992432957128
 21
17.92386097796335
 31
0.0
  0
LINE
  5
347
330
1F
100
AcDbEntity
  8
0
100
AcDbLine
 10
7.336548073318192
 20
14.45019763975585
 30
0.0
 11
7.774992432957128
 21
14.45019763975585
 31
0.0
  0
LINE
  5
348
330
1F
100
AcDbEntity
  8
0
100
AcDbLine
 10
7.319010466750876
 20
14.34500236324427
 30
0.0
 11
7.336548073318192
 21
14.45019763975585
 31
0.0
  0
LINE
  5
349
330
1F
100
AcDbEntity
  8
0
100
AcDbLine
 10
7.240090338171649
 20
14.55539291626746
 30
0.0
 11
7.319010466750876
 21
14.34500236324427
 31
0.0
  0
LINE
  5
34A
330
1F
100
AcDbEntity
  8
0
100
AcDbLine
 10
7.187476919118831
 20
14.44143134926329
 30
0.0
 11
7.240090338171649
 21
14.55539291626746
 31
0.0
  0
LINE
  5
34B
330
1F
100
AcDbEntity
  8
0
100
AcDbLine
 10
6.573655295104993
 20
14.44143134926329
 30
0.0
 11
7.187476919118831
 21
14.44143134926329
 31
0.0
  0
LINE
  5
34D
102
{ACAD_REACTORS
330
6EA
102
}
330
1F
100
AcDbEntity
  8
0
100
AcDbLine
 10
9.643207415454691
 20
14.90489016385539
 30
0.0
 11
9.643207415454691
 21
17.40489016385539
 31
0.0
  0
LINE
  5
34E
102
{ACAD_REACTORS
330
705
102
}
330
1F
100
AcDbEntity
  8
0
100
AcDbLine
 10
9.64321809221496
 20
17.40489016385539
 30
0.0
 11
8.64321809221496
 21
17.40489016385539
 31
0.0
  0
LINE
  5
34F
330
1F
100
AcDbEntity
  8
0
100
AcDbLine
 10
7.643207415454691
 20
17.40489016385539
 30
0.0
 11
7.643207415454691
 21
14.90489016385539
 31
0.0
  0
LINE
  5
350
330
1F
100
AcDbEntity
  8
0
100
AcDbLine
 10
8.64321809221496
 20
14.90489016385539
 30
0.0
 11
9.64321809221496
 21
14.90489016385539
 31
0.0
  0
TEXT
  5
351
330
1F
100
AcDbEntity
  8
0
100
AcDbText
 10
8.749096816788091
 20
15.99692653366282
 30
0.0
 40
0.09
  1
DRIVE
 50
90.0
100
AcDbText
  0
TEXT
  5
352
330
1F
100
AcDbEntity
  8
0
100
AcDbText
 10
8.880864771961169
 20
15.91125182038114
 30
0.0
 40
0.09
  1
PULLEY
 50
90.0
100
AcDbText
  0
LINE
  5
353
330
1F
100
AcDbEntity
  8
0
100
AcDbLine
 10
10.13542837758411
 20
16.15489016385539
 30
0.0
 11
10.13542837758411
 21
16.37364016385539
 31
0.0
  0
LINE
  5
354
330
1F
100
AcDbEntity
  8
0
100
AcDbLine
 10
10.13542837758411
 20
16.15489016385539
 30
0.0
 11
10.13542837758411
 21
16.81114016385539
 31
0.0
  0
LINE
  5
355
330
1F
100
AcDbEntity
  8
0
100
AcDbLine
 10
10.13542837758411
 20
16.81114016385539
 30
0.0
 11
9.686401067396346
 21
16.81114016385539
 31
0.0
  0
LINE
  5
356
330
1F
100
AcDbEntity
  8
0
100
AcDbLine
 10
10.13542837758411
 20
15.49864016385539
 30
0.0
 11
9.686401067396346
 21
15.49864016385539
 31
0.0
  0
LINE
  5
357
330
1F
100
AcDbEntity
  8
0
100
AcDbLine
 10
10.13542837758411
 20
15.84239016385539
 30
0.0
 11
10.13542837758411
 21
16.46739016385539
 31
0.0
  0
LINE
  5
358
330
1F
100
AcDbEntity
  8
0
100
AcDbLine
 10
10.13542837758411
 20
16.15489016385539
 30
0.0
 11
10.13542837758411
 21
15.49864016385539
 31
0.0
  0
LINE
  5
359
330
1F
100
AcDbEntity
  8
0
100
AcDbLine
 10
10.13542837758411
 20
16.15489016385539
 30
0.0
 11
10.13542837758411
 21
15.93614016385539
 31
0.0
  0
LINE
  5
35A
330
1F
100
AcDbEntity
  8
0
100
AcDbLine
 10
9.686401067396346
 20
15.49864016385539
 30
0.0
 11
9.686401067396346
 21
16.81114016385539
 31
0.0
  0
TEXT
  5
35B
330
1F
100
AcDbEntity
  8
0
100
AcDbText
 10
9.974642664074753
 20
15.92544461418322
 30
0.0
 40
0.09
  1
COLLAR
 50
90.0
100
AcDbText
  0
TEXT
  5
35C
330
1F
100
AcDbEntity
  8
0
100
AcDbText
 10
9.842874708901675
 20
15.89715776046077
 30
0.0
 40
0.09
  1
LOCKING
 50
90.0
100
AcDbText
  0
LINE
  5
35D
102
{ACAD_REACTORS
330
705
102
}
330
1F
100
AcDbEntity
  8
0
100
AcDbLine
 10
10.13542837758411
 20
16.15489016385539
 30
0.0
 11
10.13542837758411
 21
16.94229016385539
 31
0.0
  0
LINE
  5
35E
102
{ACAD_REACTORS
330
705
102
}
330
1F
100
AcDbEntity
  8
0
100
AcDbLine
 10
10.13542837758411
 20
16.94229016385539
 30
0.0
 11
10.60742837758412
 21
16.94229016385539
 31
0.0
  0
LINE
  5
35F
330
1F
100
AcDbEntity
  8
0
100
AcDbLine
 10
10.60742837758412
 20
16.94229016385539
 30
0.0
 11
10.60742837758412
 21
16.94229016385539
 31
0.0
  0
LINE
  5
361
330
1F
100
AcDbEntity
  8
0
100
AcDbLine
 10
10.13542837758411
 20
16.15489016385539
 30
0.0
 11
10.13542837758411
 21
15.36749016385539
 31
0.0
  0
LINE
  5
362
330
1F
100
AcDbEntity
  8
0
100
AcDbLine
 10
10.13542837758411
 20
15.36749016385539
 30
0.0
 11
10.60742837758412
 21
15.36749016385539
 31
0.0
  0
LINE
  5
363
102
{ACAD_REACTORS
330
982
102
}
330
1F
100
AcDbEntity
  8
0
100
AcDbLine
 10
10.60742837758412
 20
16.94229016385539
 30
0.0
 11
10.60742837758412
 21
15.36749016385539
 31
0.0
  0
TEXT
  5
364
330
1F
100
AcDbEntity
  8
0
100
AcDbText
 10
10.45268616258738
 20
16.24288563219112
 30
0.0
 40
0.09
  1
BEARING
 50
90.0
100
AcDbText
  0
LINE
  5
365
102
{ACAD_REACTORS
330
982
102
}
330
1F
100
AcDbEntity
  8
0
100
AcDbLine
 10
10.73242837758412
 20
16.94229016385539
 30
0.0
 11
10.73242837758412
 21
15.36749016385539
 31
0.0
  0
LINE
  5
366
102
{ACAD_REACTORS
330
7D6
330
866
102
}
330
1F
100
AcDbEntity
  8
0
100
AcDbLine
 10
11.20442837758411
 20
16.94229016385539
 30
0.0
 11
11.20442837758411
 21
15.36749016385539
 31
0.0
  0
LINE
  5
367
102
{ACAD_REACTORS
330
866
102
}
330
1F
100
AcDbEntity
  8
0
100
AcDbLine
 10
10.73242837758412
 20
16.15489016385539
 30
0.0
 11
10.73242837758412
 21
16.94229016385539
 31
0.0
  0
TEXT
  5
368
330
1F
100
AcDbEntity
  8
0
100
AcDbText
 10
11.04968616258738
 20
16.24288563219112
 30
0.0
 40
0.09
  1
BEARING
 50
90.0
100
AcDbText
  0
LINE
  5
369
330
1F
100
AcDbEntity
  8
0
100
AcDbLine
 10
10.73242837758412
 20
16.15489016385539
 30
0.0
 11
10.73242837758412
 21
15.36749016385539
 31
0.0
  0
LINE
  5
36A
330
1F
100
AcDbEntity
  8
0
100
AcDbLine
 10
10.73242837758412
 20
16.46739016385539
 30
0.0
 11
10.73242837758412
 21
15.84239016385539
 31
0.0
  0
LINE
  5
36B
330
1F
100
AcDbEntity
  8
0
100
AcDbLine
 10
10.73242837758412
 20
15.84239016385539
 30
0.0
 11
10.73242837758412
 21
16.46739016385539
 31
0.0
  0
LINE
  5
36C
330
1F
100
AcDbEntity
  8
0
100
AcDbLine
 10
10.73242837758412
 20
16.15489016385539
 30
0.0
 11
10.73242837758412
 21
15.49864016385539
 31
0.0
  0
LINE
  5
36D
330
1F
100
AcDbEntity
  8
0
100
AcDbLine
 10
10.73242837758412
 20
16.15489016385539
 30
0.0
 11
10.73242837758412
 21
15.93614016385539
 31
0.0
  0
LINE
  5
36E
102
{ACAD_REACTORS
330
7D6
102
}
330
1F
100
AcDbEntity
  8
0
100
AcDbLine
 10
10.73242837758412
 20
15.36749016385539
 30
0.0
 11
11.20442837758411
 21
15.36749016385539
 31
0.0
  0
LINE
  5
36F
330
1F
100
AcDbEntity
  8
0
100
AcDbLine
 10
10.73242837758412
 20
16.15489016385539
 30
0.0
 11
10.73242837758412
 21
16.37364016385539
 31
0.0
  0
LINE
  5
370
330
1F
100
AcDbEntity
  8
0
100
AcDbLine
 10
10.73242837758412
 20
16.15489016385539
 30
0.0
 11
10.73242837758412
 21
16.81114016385539
 31
0.0
  0
LINE
  5
371
330
1F
100
AcDbEntity
  8
0
100
AcDbLine
 10
11.22042943309396
 20
16.94229016385539
 30
0.0
 11
11.22042943309396
 21
16.94229016385539
 31
0.0
  0
LINE
  5
372
102
{ACAD_REACTORS
330
866
102
}
330
1F
100
AcDbEntity
  8
0
100
AcDbLine
 10
10.73242837758412
 20
16.94229016385539
 30
0.0
 11
11.20442837758411
 21
16.94229016385539
 31
0.0
  0
LINE
  5
3C5
330
1F
100
AcDbEntity
  8
0
100
AcDbLine
 10
11.28203062664807
 20
10.8040750031803
 30
0.0
 11
11.28203062664807
 21
10.54904557219137
 31
0.0
  0
LINE
  5
458
330
1F
100
AcDbEntity
  8
0
100
AcDbLine
 10
11.21953062664807
 20
10.9290750031803
 30
0.0
 11
10.7671505387788
 21
10.9290750031803
 31
0.0
  0
LINE
  5
459
330
1F
100
AcDbEntity
  8
0
100
AcDbLine
 10
10.65261867918674
 20
10.9290750031803
 30
0.0
 11
10.21303062664807
 21
10.9290750031803
 31
0.0
  0
LINE
  5
4CC
330
1F
100
AcDbEntity
  8
0
100
AcDbLine
 10
10.60742837758412
 20
16.94229016385539
 30
0.0
 11
10.60742837758412
 21
16.81729016385539
 31
0.0
  0
LINE
  5
4CD
330
1F
100
AcDbEntity
  8
0
100
AcDbLine
 10
10.60742837758412
 20
16.81729016385539
 30
0.0
 11
10.73242837758412
 21
16.81729016385539
 31
0.0
  0
LINE
  5
4CE
330
1F
100
AcDbEntity
  8
0
100
AcDbLine
 10
10.60742837758412
 20
16.81729016385539
 30
0.0
 11
10.73242837758412
 21
16.81729016385539
 31
0.0
  0
LINE
  5
518
102
{ACAD_REACTORS
330
982
102
}
330
1F
100
AcDbEntity
  8
0
100
AcDbLine
 10
10.60742837758412
 20
15.49249016385538
 30
0.0
 11
10.73242837758412
 21
15.49249016385538
 31
0.0
  0
LINE
  5
5C1
102
{ACAD_REACTORS
330
7FB
330
9A2
330
9BD
102
}
330
1F
100
AcDbEntity
  8
0
100
AcDbLine
 10
11.28203062664808
 20
16.93839016385538
 30
0.0
 11
15.03203062664807
 21
16.93839016385539
 31
0.0
  0
LINE
  5
5C2
102
{ACAD_REACTORS
330
7FB
102
}
330
1F
100
AcDbEntity
  8
0
100
AcDbLine
 10
11.28203062664807
 20
15.37139016385539
 30
0.0
 11
15.03203062664807
 21
15.37139016385538
 31
0.0
  0
LINE
  5
5C8
330
1F
100
AcDbEntity
  8
0
100
AcDbLine
 10
10.08803062664807
 20
17.77989016385539
 30
0.0
 11
10.08803062664807
 21
14.52989016385539
 31
0.0
  0
LINE
  5
5CA
330
1F
100
AcDbEntity
  8
0
100
AcDbLine
 10
10.08803062664807
 20
16.15489016385539
 30
0.0
 11
10.08803062664807
 21
17.77989016385539
 31
0.0
  0
LINE
  5
5CC
330
1F
100
AcDbEntity
  8
0
100
AcDbLine
 10
10.08803062664807
 20
17.77989016385539
 30
0.0
 11
10.83803062664807
 21
17.77989016385539
 31
0.0
  0
LINE
  5
5CD
330
1F
100
AcDbEntity
  8
0
100
AcDbLine
 10
10.83803062664807
 20
17.77989016385539
 30
0.0
 11
10.83803062664807
 21
17.27989016385539
 31
0.0
  0
LINE
  5
5CE
330
1F
100
AcDbEntity
  8
0
100
AcDbLine
 10
10.83803062664807
 20
14.52989016385539
 30
0.0
 11
10.83803062664807
 21
15.02989016385539
 31
0.0
  0
LINE
  5
5CF
330
1F
100
AcDbEntity
  8
0
100
AcDbLine
 10
10.08803062664807
 20
14.52989016385539
 30
0.0
 11
10.83803062664807
 21
14.52989016385539
 31
0.0
  0
LINE
  5
5D0
102
{ACAD_REACTORS
330
817
330
9D7
102
}
330
1F
100
AcDbEntity
  8
0
100
AcDbLine
 10
11.83803062664807
 20
15.02989016385539
 30
0.0
 11
11.83803062664807
 21
17.27989016385539
 31
0.0
  0
LINE
  5
5D1
102
{ACAD_REACTORS
330
817
102
}
330
1F
100
AcDbEntity
  8
0
100
AcDbLine
 10
11.83803062664807
 20
17.27989016385539
 30
0.0
 11
10.83803062664807
 21
17.27989016385539
 31
0.0
  0
LINE
  5
5D2
330
1F
100
AcDbEntity
  8
0
100
AcDbLine
 10
11.83803062664807
 20
15.02989016385539
 30
0.0
 11
10.83803062664807
 21
15.02989016385539
 31
0.0
  0
LINE
  5
5EB
330
1F
100
AcDbEntity
  8
0
100
AcDbLine
 10
10.08288020034481
 20
16.83699469010987
 30
0.0
 11
10.08288020034481
 21
18.30003417910214
 31
0.0
  0
LINE
  5
5EC
330
1F
100
AcDbEntity
  8
0
100
AcDbLine
 10
10.08288020034481
 20
18.30003417910214
 30
0.0
 11
10.08288020034481
 21
14.1202026285525
 31
0.0
  0
LINE
  5
5ED
330
1F
100
AcDbEntity
  8
0
100
AcDbLine
 10
9.670380200344817
 20
17.43074469010986
 30
0.0
 11
9.670380200344817
 21
18.3172704601387
 31
0.0
  0
LINE
  5
5EE
330
1F
100
AcDbEntity
  8
0
100
AcDbLine
 10
9.670380200344817
 20
18.3172704601387
 30
0.0
 11
9.670380200344817
 21
14.09434789289875
 31
0.0
  0
LINE
  5
5EF
330
1F
100
AcDbEntity
  8
0
100
AcDbLine
 10
9.436861735275442
 20
14.07711161186219
 30
0.0
 11
9.69548524299671
 21
14.07711161186219
 31
0.0
  0
LINE
  5
5F0
330
1F
100
AcDbEntity
  8
0
100
AcDbLine
 10
9.69548524299671
 20
14.07711161186219
 30
0.0
 11
9.816176233245016
 21
14.25809392384133
 31
0.0
  0
LINE
  5
5F1
330
1F
100
AcDbEntity
  8
0
100
AcDbLine
 10
9.816176233245016
 20
14.25809392384133
 30
0.0
 11
9.876521578531423
 21
13.95645659760992
 31
0.0
  0
LINE
  5
5F2
330
1F
100
AcDbEntity
  8
0
100
AcDbLine
 10
9.876521578531423
 20
13.95645659760992
 30
0.0
 11
9.911004632980848
 21
14.07711161186219
 31
0.0
  0
LINE
  5
5F3
330
1F
100
AcDbEntity
  8
0
100
AcDbLine
 10
9.911004632980848
 20
14.07711161186219
 30
0.0
 11
10.17824890431444
 21
14.07711161186219
 31
0.0
  0
LINE
  5
5F4
330
1F
100
AcDbEntity
  8
0
100
AcDbLine
 10
9.911004632980848
 20
18.30003417910214
 30
0.0
 11
10.17824890431444
 21
18.30003417910214
 31
0.0
  0
LINE
  5
5F5
330
1F
100
AcDbEntity
  8
0
100
AcDbLine
 10
9.876521578531423
 20
18.17937916484987
 30
0.0
 11
9.911004632980848
 21
18.30003417910214
 31
0.0
  0
LINE
  5
5F6
330
1F
100
AcDbEntity
  8
0
100
AcDbLine
 10
9.816176233245016
 20
18.48101649108127
 30
0.0
 11
9.876521578531423
 21
18.17937916484987
 31
0.0
  0
LINE
  5
5F7
330
1F
100
AcDbEntity
  8
0
100
AcDbLine
 10
9.69548524299671
 20
18.30003417910214
 30
0.0
 11
9.816176233245016
 21
18.48101649108127
 31
0.0
  0
LINE
  5
5F8
330
1F
100
AcDbEntity
  8
0
100
AcDbLine
 10
9.436861735275442
 20
18.30003417910214
 30
0.0
 11
9.69548524299671
 21
18.30003417910214
 31
0.0
  0
TEXT
  5
5F9
330
1F
100
AcDbEntity
  8
0
100
AcDbText
 10
9.897983028137653
 20
17.00944165864537
 30
0.0
 40
0.09
  1
3/8" MOTOR
 50
90.0
100
AcDbText
  0
TEXT
  5
5FA
330
1F
100
AcDbEntity
  8
0
100
AcDbText
 10
10.02975098331073
 20
16.92376694536369
 30
0.0
 40
0.09
  1
MOUNTING PLATE
 50
90.0
100
AcDbText
  0
LINE
  5
5FD
330
1F
100
AcDbEntity
  8
0
100
AcDbLine
 10
15.03203062664807
 20
15.79639016385539
 30
0.0
 11
12.03203062664807
 21
15.79639016385539
 31
0.0
  0
LINE
  5
5FE
330
1F
100
AcDbEntity
  8
0
100
AcDbLine
 10
15.03203062664808
 20
16.51339016385539
 30
0.0
 11
12.03203062664807
 21
16.51339016385539
 31
0.0
  0
LINE
  5
5FF
330
1F
100
AcDbEntity
  8
0
100
AcDbLine
 10
12.03203062664807
 20
16.51339016385539
 30
0.0
 11
12.03203062664807
 21
15.79639016385539
 31
0.0
  0
TEXT
  5
600
330
1F
100
AcDbEntity
  8
EXT
100
AcDbText
 10
15.39435436137305
 20
15.97632678918911
 30
0.0
 40
0.09
  1
BALLSCREW
100
AcDbText
  0
DIMENSION
  5
601
330
1F
100
AcDbEntity
  8
EXT
100
AcDbDimension
  2
*D9
 10
15.14060346870961
 20
15.79639016385539
 30
0.0
 11
15.14060346870961
 21
16.15489016385539
 31
0.0
 70
    32
 71
     5
 42
0.7169999999999988
  3
Standard
100
AcDbAlignedDimension
 13
15.04928149069987
 23
16.51339016385539
 33
0.0
 14
15.04928149069987
 24
15.79639016385539
 34
0.0
 50
90.0
100
AcDbRotatedDimension
1001
ACAD
1000
DSTYLE
1002
{
1070
    40
1040
0.5
1002
}
  0
TEXT
  5
602
330
1F
100
AcDbEntity
  8
EXT
100
AcDbText
 10
15.30867964809136
 20
15.84455883401603
 30
0.0
 40
0.09
  1
 PRESS FIT
100
AcDbText
  0
LINE
  5
603
330
1F
100
AcDbEntity
  8
0
100
AcDbLine
 10
15.03203062664807
 20
16.51339016385539
 30
0.0
 11
13.60433494263674
 21
16.51339016385539
 31
0.0
  0
TEXT
  5
604
330
1F
100
AcDbEntity
  8
EXT
100
AcDbText
 10
15.38247010417822
 20
16.10809474436219
 30
0.0
 40
0.09
  1
UNMACHINED
100
AcDbText
  0
LINE
  5
605
330
1F
100
AcDbEntity
  8
0
100
AcDbLine
 10
15.03203062664807
 20
16.51339016385539
 30
0.0
 11
15.03203062664807
 21
16.93839016385538
 31
0.0
  0
LINE
  5
606
102
{ACAD_REACTORS
330
9A2
330
9BD
102
}
330
1F
100
AcDbEntity
  8
0
100
AcDbLine
 10
15.03203062664807
 20
16.93839016385538
 30
0.0
 11
15.03203062664808
 21
16.51339016385539
 31
0.0
  0
LINE
  5
607
330
1F
100
AcDbEntity
  8
0
100
AcDbLine
 10
15.03203062664807
 20
15.37139016385538
 30
0.0
 11
15.03203062664808
 21
15.79639016385539
 31
0.0
  0
LINE
  5
608
330
1F
100
AcDbEntity
  8
0
100
AcDbLine
 10
15.03203062664807
 20
15.79639016385539
 30
0.0
 11
15.03203062664807
 21
15.37139016385538
 31
0.0
  0
LINE
  5
621
330
1F
100
AcDbEntity
  8
0
100
AcDbLine
 10
8.643207415454691
 20
17.40489016385539
 30
0.0
 11
8.643207415454691
 21
16.85217505507114
 31
0.0
  0
LINE
  5
622
330
1F
100
AcDbEntity
  8
0
100
AcDbLine
 10
7.634576274757472
 20
16.85217505507114
 30
0.0
 11
8.633819026572325
 21
16.85217505507114
 31
0.0
  0
LINE
  5
623
330
1F
100
AcDbEntity
  8
0
100
AcDbLine
 10
8.643207415454691
 20
14.90489016385539
 30
0.0
 11
8.643207415454691
 21
15.50773424545735
 31
0.0
  0
LINE
  5
624
102
{ACAD_REACTORS
330
6EA
102
}
330
1F
100
AcDbEntity
  8
0
100
AcDbLine
 10
7.634576274757472
 20
15.50773424545735
 30
0.0
 11
8.633819026572325
 21
15.50773424545735
 31
0.0
  0
LEADER
  5
649
330
1F
100
AcDbEntity
  8
EXT
100
AcDbLeader
  3
Standard
 73
     0
 40
0.24
 41
0.9599999999999997
 76
     3
 10
9.737278567005375
 20
10.90525046018828
 30
0.0
 10
9.737278567005375
 20
10.06928423383806
 30
0.0
 10
9.53900070424595
 20
10.06928423383806
 30
0.0
340
64A
213
0.0
223
0.045
233
0.0
1001
ACAD
1000
DSTYLE
1002
{
1070
   147
1040
0.09
1070
    77
1070
     0
1070
    40
1040
0.5
1002
}
  0
MTEXT
  5
64A
102
{ACAD_REACTORS
330
649
102
}
330
1F
100
AcDbEntity
  8
EXT
100
AcDbMText
 10
9.49400070424595
 20
10.02428423383806
 30
0.0
 40
0.09
 41
0.0
 71
     9
 72
     1
  1
5/8-18 TPI\PRH THREADED
 73
     1
 44
1.0
  0
LINE
  5
64C
102
{ACAD_REACTORS
330
817
102
}
330
1F
100
AcDbEntity
  8
EXT
100
AcDbLine
 10
10.83803062664807
 20
17.27989016385539
 30
0.0
 11
10.83803062664807
 21
18.34312519579245
 31
0.0
  0
LINE
  5
64D
330
1F
100
AcDbEntity
  8
EXT
100
AcDbLine
 10
10.83803062664807
 20
18.34312519579245
 30
0.0
 11
11.95281901083467
 21
18.34312519579245
 31
0.0
  0
LINE
  5
64E
330
1F
100
AcDbEntity
  8
EXT
100
AcDbLine
 10
10.83803062664807
 20
15.02989016385539
 30
0.0
 11
10.83803062664807
 21
13.47383695939933
 31
0.0
  0
LINE
  5
64F
330
1F
100
AcDbEntity
  8
EXT
100
AcDbLine
 10
10.83803062664807
 20
13.47383695939933
 30
0.0
 11
11.65971274833947
 21
13.47383695939933
 31
0.0
  0
LINE
  5
650
330
1F
100
AcDbEntity
  8
EXT
100
AcDbLine
 10
11.68557503917651
 20
13.69791049746805
 30
0.0
 11
11.68557503917651
 21
13.56863723799787
 31
0.0
  0
LINE
  5
651
330
1F
100
AcDbEntity
  8
EXT
100
AcDbLine
 10
11.68557503917651
 20
13.56863723799787
 30
0.0
 11
11.77178267529995
 21
13.54278271174339
 31
0.0
  0
LINE
  5
652
330
1F
100
AcDbEntity
  8
EXT
100
AcDbLine
 10
11.77178267529995
 20
13.54278271174339
 30
0.0
 11
11.59074633976524
 21
13.48245520461725
 31
0.0
  0
LINE
  5
653
330
1F
100
AcDbEntity
  8
EXT
100
AcDbLine
 10
11.59074633976524
 20
13.48245520461725
 30
0.0
 11
11.70281656640116
 21
13.44798243314485
 31
0.0
  0
LINE
  5
654
330
1F
100
AcDbEntity
  8
EXT
100
AcDbLine
 10
11.70281656640116
 20
13.44798243314485
 30
0.0
 11
11.70281656640116
 21
13.25838166654853
 31
0.0
  0
LINE
  5
655
330
1F
100
AcDbEntity
  8
EXT
100
AcDbLine
 10
11.98730236495953
 20
18.51548968135219
 30
0.0
 11
11.98730236495953
 21
18.38621642188201
 31
0.0
  0
LINE
  5
656
330
1F
100
AcDbEntity
  8
EXT
100
AcDbLine
 10
12.00454389218418
 20
18.26556161702899
 30
0.0
 11
12.00454389218418
 21
18.07596085043266
 31
0.0
  0
LINE
  5
657
330
1F
100
AcDbEntity
  8
EXT
100
AcDbLine
 10
11.89247366554826
 20
18.30003438850138
 30
0.0
 11
12.00454389218418
 21
18.26556161702899
 31
0.0
  0
LINE
  5
658
330
1F
100
AcDbEntity
  8
EXT
100
AcDbLine
 10
12.07351000108298
 20
18.36036189562753
 30
0.0
 11
11.89247366554826
 21
18.30003438850138
 31
0.0
  0
LINE
  5
659
330
1F
100
AcDbEntity
  8
EXT
100
AcDbLine
 10
11.98730236495953
 20
18.38621642188201
 30
0.0
 11
12.07351000108298
 21
18.36036189562753
 31
0.0
  0
TEXT
  5
65A
330
1F
100
AcDbEntity
  8
EXT
100
AcDbText
 10
11.0658876365288
 20
18.08778807280908
 30
0.0
 40
0.09
  1
MILL
100
AcDbText
  0
TEXT
  5
65B
330
1F
100
AcDbEntity
  8
EXT
100
AcDbText
 10
10.98830076401768
 20
13.61493744124594
 30
0.0
 40
0.09
  1
MILL
100
AcDbText
  0
HATCH
  5
68F
330
1F
100
AcDbEntity
  8
0
100
AcDbHatch
 10
0.0
 20
0.0
 30
0.0
210
0.0
220
0.0
230
1.0
  2
ANGLE
 70
     0
 71
     0
 91
        5
 92
       16
 93
        2
 72
     1
 10
10.17886955594911
 20
10.94217031264346
 11
10.11636955594911
 21
10.94217031264346
 72
     1
 10
10.11636955594911
 20
10.94217031264346
 11
10.17886955594911
 21
10.94217031264346
 97
        0
 92
        1
 93
        2
 72
     1
 10
10.17886955594911
 20
10.81285855878283
 11
10.17886955594911
 21
11.56285855878283
 72
     1
 10
10.17886955594911
 20
11.56285855878283
 11
10.17886955594911
 21
10.81285855878283
 97
        0
 92
       16
 93
        2
 72
     1
 10
9.616369555949113
 20
10.94217031264346
 11
9.553869555949113
 21
10.94217031264346
 72
     1
 10
9.553869555949113
 20
10.94217031264346
 11
9.616369555949113
 21
10.94217031264346
 97
        0
 92
        1
 93
        2
 72
     1
 10
9.553869555949113
 20
10.81285855878283
 11
9.553869555949113
 21
11.56285855878283
 72
     1
 10
9.553869555949113
 20
11.56285855878283
 11
9.553869555949113
 21
10.81285855878283
 97
        0
 92
       33
 93
        4
 72
     1
 10
9.616369555949113
 20
10.94217031264346
 11
10.11636955594911
 21
10.94217031264346
 72
     1
 10
9.553869555949113
 20
11.56285855878283
 11
10.17886955594911
 21
11.56285855878283
 72
     1
 10
10.20101955594911
 20
11.56285855878283
 11
10.17886955594911
 21
11.56285855878283
 72
     1
 10
9.553869555949113
 20
11.56285855878283
 11
9.531719555949113
 21
11.56285855878283
 97
        0
 75
     0
 76
     1
 52
180.0
 41
0.2
 77
     0
 78
     2
 53
180.0
 43
22.02674839624077
 44
1.474827932134758
 45
0.0
 46
-0.055
 79
     2
 49
0.04
 49
-0.015
 53
270.0
 43
22.02674839624077
 44
1.474827932134758
 45
0.055
 46
0.0
 79
     2
 49
0.04
 49
-0.015
 98
        1
 10
22.02674839624077
 20
1.474827932134758
  0
LINE
  5
690
102
{ACAD_REACTORS
330
75C
330
776
102
}
330
1F
100
AcDbEntity
  8
0
100
AcDbLine
 10
9.592342380508711
 20
11.5762250031803
 30
0.0
 11
10.21303062664807
 21
11.5762250031803
 31
0.0
  0
LINE
  5
691
102
{ACAD_REACTORS
330
75C
330
776
102
}
330
1F
100
AcDbEntity
  8
0
100
AcDbLine
 10
10.21303062664807
 20
11.5762250031803
 30
0.0
 11
10.21303062664807
 21
10.9512250031803
 31
0.0
  0
LINE
  5
692
330
1F
100
AcDbEntity
  8
0
100
AcDbLine
 10
10.21303062664807
 20
10.9512250031803
 30
0.0
 11
9.592342380508711
 21
10.9512250031803
 31
0.0
  0
LINE
  5
693
102
{ACAD_REACTORS
330
737
330
75C
102
}
330
1F
100
AcDbEntity
  8
0
100
AcDbLine
 10
9.592342380508711
 20
10.9512250031803
 30
0.0
 11
9.592342380508711
 21
11.5762250031803
 31
0.0
  0
TEXT
  5
69F
330
1F
100
AcDbEntity
  8
EXT
100
AcDbText
 10
11.97412915771812
 20
15.54658521460417
 30
0.0
 40
0.09
  1
SPINDLE CROSS SECTION
100
AcDbText
  0
LINE
  5
6B4
330
1F
100
AcDbEntity
  8
0
100
AcDbLine
 10
11.21376712706383
 20
15.69524016385539
 30
0.0
 11
11.21376712706383
 21
16.61454016385539
 31
0.0
  0
TEXT
  5
6B6
330
1F
100
AcDbEntity
  8
0
100
AcDbText
 10
7.134638518392629
 20
16.16156010862121
 30
0.0
 40
0.09
  1
(OPTIONAL)
 50
90.0
100
AcDbText
  0
DIMENSION
  5
6B7
330
1F
100
AcDbEntity
  8
EXT
100
AcDbDimension
  2
*D10
 10
7.643207415454691
 20
16.0205853807046
 30
0.0
 11
7.143207415454691
 21
16.0205853807046
 31
0.0
 70
    32
 71
     5
  3
Standard
100
AcDbAlignedDimension
 13
6.643207415454691
 23
16.15489016385539
 33
0.0
 14
7.643207415454691
 24
16.15489016385539
 34
0.0
100
AcDbRotatedDimension
1001
ACAD
1000
DSTYLE
1002
{
1070
    40
1040
0.5
1002
}
  0
DIMENSION
  5
6D1
102
{ACAD_XDICTIONARY
360
6DF
102
}
102
{ACAD_REACTORS
330
6EA
102
}
330
1F
100
AcDbEntity
  8
EXT
100
AcDbDimension
  2
*D11
 10
9.643207415454691
 20
14.77027565640881
 30
0.0
 11
8.643207415454691
 21
14.77027565640881
 31
0.0
 70
    32
 71
     5
 42
2.0
  3
Standard
100
AcDbAlignedDimension
 13
7.643207415454691
 23
15.50773424545735
 33
0.0
 14
9.643207415454691
 24
15.50773424545735
 34
0.0
100
AcDbRotatedDimension
1001
ACAD
1000
DSTYLE
1002
{
1070
    40
1040
0.5
1002
}
  0
DIMENSION
  5
6EC
102
{ACAD_XDICTIONARY
360
6FA
102
}
102
{ACAD_REACTORS
330
705
102
}
330
1F
100
AcDbEntity
  8
EXT
100
AcDbDimension
  2
*D12
 10
10.13542837758411
 20
18.8746275125604
 30
0.0
 11
9.639323234899539
 21
18.8746275125604
 31
0.0
 70
    32
 71
     5
 42
0.9922102853691594
  3
Standard
100
AcDbAlignedDimension
 13
9.14321809221496
 23
17.40489016385539
 33
0.0
 14
10.13542837758411
 24
16.94229016385539
 34
0.0
100
AcDbRotatedDimension
1001
ACAD
1000
DSTYLE
1002
{
1070
    40
1040
0.5
1002
}
  0
TEXT
  5
706
330
1F
100
AcDbEntity
  8
EXT
100
AcDbText
 10
9.075081091364188
 20
19.03823378441201
 30
0.0
 40
0.09
  1
OVERHUNG LOAD
100
AcDbText
  0
TEXT
  5
707
330
1F
100
AcDbEntity
  8
EXT
100
AcDbText
 10
9.2548194284751
 20
17.89085113817699
 30
0.0
 40
0.09
  1
LOAD C/L
 50
90.0
100
AcDbText
  0
DIMENSION
  5
71E
102
{ACAD_XDICTIONARY
360
72C
102
}
102
{ACAD_REACTORS
330
737
102
}
330
1F
100
AcDbEntity
  8
EXT
100
AcDbDimension
  2
*D13
 10
9.592342380508711
 20
11.80059423673665
 30
0.0
 11
8.114012272582709
 21
11.80059423673665
 31
0.0
 70
    32
 71
     5
 42
2.956660215852002
  3
Standard
100
AcDbAlignedDimension
 13
6.635682164656708
 23
11.5137250031803
 33
0.0
 14
9.592342380508711
 24
11.5137250031803
 34
0.0
100
AcDbRotatedDimension
1001
ACAD
1000
DSTYLE
1002
{
1070
    40
1040
0.5
1002
}
  0
DIMENSION
  5
743
102
{ACAD_XDICTIONARY
360
751
102
}
102
{ACAD_REACTORS
330
75C
102
}
330
1F
100
AcDbEntity
  8
EXT
100
AcDbDimension
  2
*D14
 10
10.21303062664807
 20
11.99073349054552
 30
0.0
 11
9.902686503578394
 21
11.99073349054552
 31
0.0
 70
    32
 71
     5
 42
0.6206882461393662
  3
Standard
100
AcDbAlignedDimension
 13
9.592342380508711
 23
11.5137250031803
 33
0.0
 14
10.21303062664807
 24
11.5762250031803
 34
0.0
100
AcDbRotatedDimension
1001
ACAD
1000
DSTYLE
1002
{
1070
    40
1040
0.5
1002
}
  0
DIMENSION
  5
75D
102
{ACAD_XDICTIONARY
360
76B
102
}
102
{ACAD_REACTORS
330
776
102
}
330
1F
100
AcDbEntity
  8
EXT
100
AcDbDimension
  2
*D15
 10
11.21953062664807
 20
11.90430647796844
 30
0.0
 11
10.71628062664807
 21
11.90430647796844
 31
0.0
 70
    32
 71
     5
 42
1.0065
  3
Standard
100
AcDbAlignedDimension
 13
10.21303062664807
 23
11.5762250031803
 33
0.0
 14
11.21953062664807
 24
11.5983750031803
 34
0.0
100
AcDbRotatedDimension
1001
ACAD
1000
DSTYLE
1002
{
1070
    40
1040
0.5
1002
}
  0
DIMENSION
  5
777
102
{ACAD_XDICTIONARY
360
785
102
}
102
{ACAD_REACTORS
330
790
102
}
330
1F
100
AcDbEntity
  8
EXT
100
AcDbDimension
  2
*D16
 10
11.28203062664807
 20
12.16934904125869
 30
0.0
 11
11.71703062664807
 21
12.16934904125869
 31
0.0
 70
    32
 71
     5
 42
0.0625
  3
Standard
100
AcDbAlignedDimension
 13
11.21953062664807
 23
11.7233750031803
 33
0.0
 14
11.28203062664807
 24
11.7233750031803
 34
0.0
100
AcDbRotatedDimension
1001
ACAD
1000
DSTYLE
1002
{
1070
    40
1040
0.5
1002
}
  0
DIMENSION
  5
7BD
102
{ACAD_XDICTIONARY
360
7CB
102
}
102
{ACAD_REACTORS
330
7D6
102
}
330
1F
100
AcDbEntity
  8
EXT
100
AcDbDimension
  2
*D17
 10
10.86338214973628
 20
15.36749016385539
 30
0.0
 11
10.86338214973628
 21
16.15489016385539
 31
0.0
 70
    32
 71
     5
 42
1.574800000000005
  3
Standard
100
AcDbAlignedDimension
 13
11.20442837758411
 23
16.94229016385539
 33
0.0
 14
11.20442837758411
 24
15.36749016385539
 34
0.0
 50
90.0
100
AcDbRotatedDimension
1001
ACAD
1000
DSTYLE
1002
{
1070
    40
1040
0.5
1002
}
  0
TEXT
  5
7E1
330
1F
100
AcDbEntity
  8
EXT
100
AcDbText
 10
10.78738259511162
 20
15.93243019978296
 30
0.0
 40
0.09
  1
40mm
100
AcDbText
  0
DIMENSION
  5
7E2
102
{ACAD_XDICTIONARY
360
7F0
102
}
102
{ACAD_REACTORS
330
7FB
102
}
330
1F
100
AcDbEntity
  8
EXT
100
AcDbDimension
  2
*D18
 10
11.56833454258955
 20
15.37139016385538
 30
0.0
 11
11.56833454258955
 21
16.15489016385539
 31
0.0
 70
    32
 71
     5
 42
1.567
  3
Standard
100
AcDbAlignedDimension
 13
11.28203062664808
 23
16.93839016385538
 33
0.0
 14
11.28203062664807
 24
15.37139016385538
 34
0.0
 50
90.0
100
AcDbRotatedDimension
1001
ACAD
1000
DSTYLE
1002
{
1070
    40
1040
0.5
1002
}
  0
DIMENSION
  5
7FE
102
{ACAD_XDICTIONARY
360
80C
102
}
102
{ACAD_REACTORS
330
817
102
}
330
1F
100
AcDbEntity
  8
EXT
100
AcDbDimension
  2
*D19
 10
11.83803062664807
 20
17.85441594856342
 30
0.0
 11
11.33803062664807
 21
17.85441594856342
 31
0.0
 70
    32
 71
     5
 42
0.9999999999999982
  3
Standard
100
AcDbAlignedDimension
 13
10.83803062664807
 23
17.27989016385539
 33
0.0
 14
11.83803062664807
 24
17.27989016385539
 34
0.0
100
AcDbRotatedDimension
1001
ACAD
1000
DSTYLE
1002
{
1070
    40
1040
0.5
1002
}
  0
LINE
  5
822
330
1F
100
AcDbEntity
  8
0
100
AcDbLine
 10
11.21376712706383
 20
16.61454016385539
 30
0.0
 11
11.28203062664807
 21
16.61454016385539
 31
0.0
  0
DIMENSION
  5
84D
102
{ACAD_XDICTIONARY
360
85B
102
}
102
{ACAD_REACTORS
330
866
102
}
330
1F
100
AcDbEntity
  8
EXT
100
AcDbDimension
  2
*D20
 10
10.73242837758412
 20
17.15344139551047
 30
0.0
 11
10.38742837758411
 21
17.15344139551047
 31
0.0
 70
    32
 71
     5
 42
0.4719999999999996
  3
Standard
100
AcDbAlignedDimension
 13
11.20442837758411
 23
16.94229016385539
 33
0.0
 14
10.73242837758412
 24
16.94229016385539
 34
0.0
100
AcDbRotatedDimension
1001
ACAD
1000
DSTYLE
1002
{
1070
    40
1040
0.5
1002
}
  0
TEXT
  5
867
330
1F
100
AcDbEntity
  8
EXT
100
AcDbText
 10
10.22122139343274
 20
17.01200823603727
 30
0.0
 40
0.09
  1
12mm
100
AcDbText
  0
TEXT
  5
868
330
1F
100
AcDbEntity
  8
EXT
100
AcDbText
 10
9.948625302789499
 20
10.56024409138459
 30
0.0
 40
0.09
  1
20mm
100
AcDbText
  0
TEXT
  5
86B
330
1F
100
AcDbEntity
  8
EXT
100
AcDbText
 10
12.29914758961773
 20
10.6670220981757
 30
0.0
 40
0.09
  1
SPINDLE CROSS SECTION
100
AcDbText
  0
DIMENSION
  5
905
102
{ACAD_XDICTIONARY
360
913
102
}
102
{ACAD_REACTORS
330
91E
102
}
330
1F
100
AcDbEntity
  8
EXT
100
AcDbDimension
  2
*D21
 10
15.03203062664807
 20
9.681038055384597
 30
0.0
 11
13.15703062664807
 21
9.681038055384597
 31
0.0
 70
    32
 71
     5
 42
3.75
  3
Standard
100
AcDbAlignedDimension
 13
11.28203062664807
 23
10.4802250031803
 33
0.0
 14
15.03203062664807
 24
10.4802250031803
 34
0.0
100
AcDbRotatedDimension
1001
ACAD
1000
DSTYLE
1002
{
1070
    40
1040
0.5
1002
}
  0
LEADER
  5
929
330
1F
100
AcDbEntity
  8
EXT
100
AcDbLeader
  3
Standard
 73
     0
 40
0.09
 41
0.93
 76
     3
 10
11.86784199204241
 20
16.96052546996101
 30
0.0
 10
12.34224675229835
 20
17.40514721270054
 30
0.0
 10
12.46084785847249
 20
17.40514721270054
 30
0.0
340
92A
213
0.0
223
-0.045
233
0.0
1001
ACAD
1000
DSTYLE
1002
{
1070
   147
1040
0.09
1070
    77
1070
     0
1070
    40
1040
0.5
1002
}
  0
MTEXT
  5
92A
102
{ACAD_REACTORS
330
929
102
}
330
1F
100
AcDbEntity
  8
EXT
100
AcDbMText
 10
12.50584785847249
 20
17.45014721270054
 30
0.0
 40
0.09
 41
0.0
 71
     1
 72
     1
  1
1.5748" BORE
 73
     1
 44
1.0
  0
DIMENSION
  5
92C
330
1F
100
AcDbEntity
  8
EXT
100
AcDbDimension
  2
*D22
 10
11.39344746634691
 20
11.5983750031803
 30
0.0
 11
11.06344746634691
 21
11.4183750031803
 31
0.0
 70
    32
 71
     5
 42
0.125
  3
Standard
100
AcDbAlignedDimension
 13
11.46414559688439
 23
11.7233750031803
 33
0.0
 14
11.46414559688438
 24
11.5983750031803
 34
0.0
 50
90.0
100
AcDbRotatedDimension
1001
ACAD
1000
DSTYLE
1002
{
1070
    40
1040
0.5
1002
}
  0
DIMENSION
  5
969
102
{ACAD_XDICTIONARY
360
977
102
}
102
{ACAD_REACTORS
330
982
102
}
330
1F
100
AcDbEntity
  8
EXT
100
AcDbDimension
  2
*D23
 10
10.73242837758412
 20
15.19499056759546
 30
0.0
 11
11.15242837758412
 21
15.19499056759546
 31
0.0
 70
    32
 71
     5
 42
0.125
  3
Standard
100
AcDbAlignedDimension
 13
10.60742837758412
 23
15.49249016385538
 33
0.0
 14
10.73242837758412
 24
15.49249016385538
 34
0.0
100
AcDbRotatedDimension
1001
ACAD
1000
DSTYLE
1002
{
1070
    40
1040
0.5
1002
}
  0
LINE
  5
985
330
1F
100
AcDbEntity
  8
EXT
100
AcDbLine
 10
18.08803062664807
 20
15.38737185268623
 30
0.0
 11
22.83803062664807
 21
15.38737185268623
 31
0.0
  0
LINE
  5
986
102
{ACAD_REACTORS
330
9BD
102
}
330
1F
100
AcDbEntity
  8
EXT
100
AcDbLine
 10
22.83803062664807
 20
15.38737185268623
 30
0.0
 11
22.83803062664807
 21
16.95379983887592
 31
0.0
  0
LINE
  5
987
102
{ACAD_REACTORS
330
9A2
330
9BD
102
}
330
1F
100
AcDbEntity
  8
EXT
100
AcDbLine
 10
22.83803062664807
 20
16.95379983887592
 30
0.0
 11
18.08803062664807
 21
16.95379983887592
 31
0.0
  0
LINE
  5
988
102
{ACAD_REACTORS
330
9A2
102
}
330
1F
100
AcDbEntity
  8
EXT
100
AcDbLine
 10
18.08803062664807
 20
16.95379983887592
 30
0.0
 11
18.08803062664807
 21
15.38737185268623
 31
0.0
  0
DIMENSION
  5
989
102
{ACAD_XDICTIONARY
360
997
102
}
102
{ACAD_REACTORS
330
9A2
102
}
330
1F
100
AcDbEntity
  8
EXT
100
AcDbDimension
  2
*D24
 10
18.08803062664807
 20
18.02624484675013
 30
0.0
 11
16.56003062664807
 21
18.02624484675013
 31
0.0
 70
    32
 71
     5
 42
3.055999999999999
  3
Standard
100
AcDbAlignedDimension
 13
15.03203062664807
 23
16.93839016385539
 33
0.0
 14
18.08803062664807
 24
16.95379983887592
 34
0.0
100
AcDbRotatedDimension
1001
ACAD
1000
DSTYLE
1002
{
1070
    40
1040
0.5
1002
}
  0
TEXT
  5
9A3
330
1F
100
AcDbEntity
  8
EXT
100
AcDbText
 10
19.46308623615465
 20
16.10809474436219
 30
0.0
 40
0.09
  1
PRELOADED NUT ASS'Y
100
AcDbText
  0
DIMENSION
  5
9A4
102
{ACAD_XDICTIONARY
360
9B2
102
}
102
{ACAD_REACTORS
330
9BD
102
}
330
1F
100
AcDbEntity
  8
EXT
100
AcDbDimension
  2
*D25
 10
22.83803062664807
 20
18.57946850875492
 30
0.0
 11
18.93503062664807
 21
18.57946850875492
 31
0.0
 70
    32
 71
     5
 42
7.805999999999999
  3
Standard
100
AcDbAlignedDimension
 13
15.03203062664807
 23
16.93839016385539
 33
0.0
 14
22.83803062664807
 24
16.95379983887592
 34
0.0
100
AcDbRotatedDimension
1001
ACAD
1000
DSTYLE
1002
{
1070
    40
1040
0.5
1002
}
  0
DIMENSION
  5
9BE
102
{ACAD_XDICTIONARY
360
9CC
102
}
102
{ACAD_REACTORS
330
9D7
102
}
330
1F
100
AcDbEntity
  8
EXT
100
AcDbDimension
  2
*D26
 10
22.83803062664807
 20
19.48600164234303
 30
0.0
 11
17.33803062664807
 21
19.48600164234303
 31
0.0
 70
    32
 71
     5
 42
11.0
  3
Standard
100
AcDbAlignedDimension
 13
11.83803062664807
 23
17.27989016385539
 33
0.0
 14
22.83803062664807
 24
16.98504983887592
 34
0.0
100
AcDbRotatedDimension
1001
ACAD
1000
DSTYLE
1002
{
1070
    40
1040
0.5
1002
}
  0
TEXT
  5
9D8
330
1F
100
AcDbEntity
  8
0
100
AcDbText
 10
23.0106442715594
 20
17.12322524341988
 30
0.0
 40
0.09
  1
Y AXIS LIMIT
 50
90.0
100
AcDbText
  0
TEXT
  5
9DA
330
1F
100
AcDbEntity
  8
EXT
100
AcDbText
 10
16.1930976232978
 20
19.28096068261142
 30
0.0
 40
0.09
  1
AVAILABLE MILL SCREW DISTANCE
100
AcDbText
  0
LINE
  5
9DB
330
1F
100
AcDbEntity
  8
EXT
100
AcDbLine
 10
22.83803062664807
 20
15.38737185268623
 30
0.0
 11
22.83803062664807
 21
14.37645132230441
 31
0.0
  0
LINE
  5
9DC
330
1F
100
AcDbEntity
  8
EXT
100
AcDbLine
 10
22.83803062664807
 20
14.37645132230441
 30
0.0
 11
21.95604098291141
 21
13.23641722740036
 31
0.0
  0
LINE
  5
9DD
330
1F
100
AcDbEntity
  8
EXT
100
AcDbLine
 10
21.95604098291141
 20
13.23641722740036
 30
0.0
 11
20.18365210706923
 21
13.23641722740036
 31
0.0
  0
LINE
  5
9DE
330
1F
100
AcDbEntity
  8
EXT
100
AcDbLine
 10
20.18365210706923
 20
13.23641722740036
 30
0.0
 11
21.29654746917451
 21
14.40392203398011
 31
0.0
  0
LINE
  5
9DF
330
1F
100
AcDbEntity
  8
EXT
100
AcDbLine
 10
21.29654746917451
 20
14.40392203398011
 30
0.0
 11
21.29654746917451
 21
15.36539653230131
 31
0.0
  0
CIRCLE
  5
9E2
330
1F
100
AcDbEntity
  8
EXT
100
AcDbCircle
 10
21.39272356290186
 20
14.14295036098847
 30
0.0
 40
0.0990674995033953
  0
CIRCLE
  5
9E3
330
1F
100
AcDbEntity
  8
EXT
100
AcDbCircle
 10
20.96680067036115
 20
13.53859493859639
 30
0.0
 40
0.0990674995033953
  0
CIRCLE
  5
9E4
330
1F
100
AcDbEntity
  8
EXT
100
AcDbCircle
 10
21.80490706141857
 20
13.483653515245
 30
0.0
 40
0.0990674995033953
  0
CIRCLE
  5
9E5
330
1F
100
AcDbEntity
  8
EXT
100
AcDbCircle
 10
22.16213264827993
 20
14.14295036098847
 30
0.0
 40
0.0990674995033953
  0
LINE
  5
9E6
330
1F
100
AcDbEntity
  8
EXT
100
AcDbLine
 10
20.18365210706923
 20
13.23641722740036
 30
0.0
 11
20.18365210706923
 21
12.90676880452862
 31
0.0
  0
LINE
  5
9E7
330
1F
100
AcDbEntity
  8
EXT
100
AcDbLine
 10
20.18365210706923
 20
12.90676880452862
 30
0.0
 11
21.96978046082526
 21
12.90676880452862
 31
0.0
  0
LINE
  5
9E8
330
1F
100
AcDbEntity
  8
EXT
100
AcDbLine
 10
21.96978046082526
 20
12.90676880452862
 30
0.0
 11
21.96978046082526
 21
13.23641722740036
 31
0.0
  0
LINE
  5
9E9
330
1F
100
AcDbEntity
  8
EXT
100
AcDbLine
 10
21.96978046082526
 20
12.90676880452862
 30
0.0
 11
22.83536563993067
 21
14.07427361110838
 31
0.0
  0
LINE
  5
9EB
330
1F
100
AcDbEntity
  8
EXT
100
AcDbLine
 10
22.83536563993067
 20
14.07427361110838
 30
0.0
 11
22.98649956142353
 21
14.32150989895302
 31
0.0
  0
LINE
  5
9EC
330
1F
100
AcDbEntity
  8
EXT
100
AcDbLine
 10
22.98649956142353
 20
14.32150989895302
 30
0.0
 11
22.98649956142353
 21
16.95869716469027
 31
0.0
  0
LINE
  5
9ED
330
1F
100
AcDbEntity
  8
EXT
100
AcDbLine
 10
22.98649956142353
 20
16.95869716469027
 30
0.0
 11
22.83536563993067
 21
16.95869716469027
 31
0.0
  0
TEXT
  5
9EE
330
1F
100
AcDbEntity
  8
EXT
100
AcDbText
 10
20.94694666303513
 20
12.63305115353523
 30
0.0
 40
0.09
  1
TABLE ATTACH BRACKET (N.T.S.)
100
AcDbText
  0
LEADER
  5
9F0
330
1F
100
AcDbEntity
  8
EXT
100
AcDbLeader
  3
Standard
 73
     0
 40
0.0900000000000001
 41
4.470000000000002
 76
     3
 10
22.95902068948568
 20
19.32117743090716
 30
0.0
 10
22.56057666888281
 20
20.47494691095824
 30
0.0
 10
22.24456934798327
 20
20.47494691095824
 30
0.0
340
9F1
213
0.0
223
0.045
233
0.0
1001
ACAD
1000
DSTYLE
1002
{
1070
   147
1040
0.09
1070
    77
1070
     0
1070
    40
1040
0.5
1002
}
  0
MTEXT
  5
9F1
102
{ACAD_REACTORS
330
9F0
102
}
330
1F
100
AcDbEntity
  8
EXT
100
AcDbMText
 10
22.19956934798327
 20
20.42994691095823
 30
0.0
 40
0.09
 41
0.0
 71
     9
 72
     1
  1
\A1;CAN MACHINE ANOTHER 3/4" HERE FOR ADDITIONAL TRAVEL
 73
     1
 44
1.0
  0
DIMENSION
  5
9F4
102
{ACAD_XDICTIONARY
360
9F5
102
}
102
{ACAD_REACTORS
330
9F6
102
}
330
1F
100
AcDbEntity
  8
EXT
100
AcDbDimension
  2
*D30
 10
10.73242837758412
 20
25.99097597700739
 30
0.0
 11
11.15242837758412
 21
25.99097597700739
 31
0.0
 70
    32
 71
     5
 42
0.125
  3
Standard
100
AcDbAlignedDimension
 13
10.60742837758412
 23
26.28847557326731
 33
0.0
 14
10.73242837758412
 24
26.28847557326731
 34
0.0
100
AcDbRotatedDimension
1001
ACAD
1000
DSTYLE
1002
{
1070
    40
1040
0.5
1002
}
  0
DIMENSION
  5
9F7
102
{ACAD_XDICTIONARY
360
9F8
102
}
102
{ACAD_REACTORS
330
9F9
102
}
330
1F
100
AcDbEntity
  8
EXT
100
AcDbDimension
  2
*D29
 10
10.73242837758412
 20
27.9494268049224
 30
0.0
 11
10.38742837758411
 21
27.9494268049224
 31
0.0
 70
    32
 71
     5
 42
0.4719999999999996
  3
Standard
100
AcDbAlignedDimension
 13
11.20442837758411
 23
27.73827557326732
 33
0.0
 14
10.73242837758412
 24
27.73827557326732
 34
0.0
100
AcDbRotatedDimension
1001
ACAD
1000
DSTYLE
1002
{
1070
    40
1040
0.5
1002
}
  0
LINE
  5
9FA
330
1F
100
AcDbEntity
  8
0
100
AcDbLine
 10
10.08803062664807
 20
28.57587557326731
 30
0.0
 11
10.83803062664807
 21
28.57587557326731
 31
0.0
  0
LINE
  5
9FB
102
{ACAD_REACTORS
330
A37
102
}
330
1F
100
AcDbEntity
  8
0
100
AcDbLine
 10
10.13542837758411
 20
27.73827557326732
 30
0.0
 11
10.60742837758412
 21
27.73827557326732
 31
0.0
  0
LINE
  5
9FC
330
1F
100
AcDbEntity
  8
0
100
AcDbLine
 10
10.13542837758411
 20
26.16347557326731
 30
0.0
 11
10.60742837758412
 21
26.16347557326731
 31
0.0
  0
LINE
  5
9FD
102
{ACAD_REACTORS
330
C5C
102
}
330
1F
100
AcDbEntity
  8
0
100
AcDbLine
 10
10.08803062664807
 20
25.32587557326731
 30
0.0
 11
10.83803062664807
 21
25.32587557326731
 31
0.0
  0
LINE
  5
9FE
102
{ACAD_REACTORS
330
A37
102
}
330
1F
100
AcDbEntity
  8
0
100
AcDbLine
 10
10.13542837758411
 20
26.95087557326731
 30
0.0
 11
10.13542837758411
 21
27.73827557326732
 31
0.0
  0
LINE
  5
9FF
330
1F
100
AcDbEntity
  8
0
100
AcDbLine
 10
10.08803062664807
 20
26.95087557326731
 30
0.0
 11
10.08803062664807
 21
28.57587557326731
 31
0.0
  0
TEXT
  5
A00
330
1F
100
AcDbEntity
  8
0
100
AcDbText
 10
7.13463851839263
 20
26.95754551803313
 30
0.0
 40
0.09
  1
(OPTIONAL)
 50
90.0
100
AcDbText
  0
LINE
  5
A01
330
1F
100
AcDbEntity
  8
0
100
AcDbLine
 10
6.643207415454691
 20
25.26270841972707
 30
0.0
 11
6.643207415454689
 21
28.71108009688272
 31
0.0
  0
LINE
  5
A02
102
{ACAD_REACTORS
330
A0F
102
}
330
1F
100
AcDbEntity
  8
0
100
AcDbLine
 10
9.643207415454691
 20
25.70087557326731
 30
0.0
 11
9.643207415454691
 21
28.20087557326731
 31
0.0
  0
LINE
  5
A03
102
{ACAD_REACTORS
330
A0F
102
}
330
1F
100
AcDbEntity
  8
0
100
AcDbLine
 10
7.643207415454691
 20
28.70087557326732
 30
0.0
 11
7.643207415454691
 21
25.26270841972707
 31
0.0
  0
LINE
  5
A04
330
1F
100
AcDbEntity
  8
0
100
AcDbLine
 10
7.643207415454691
 20
28.20087557326731
 30
0.0
 11
7.643207415454691
 21
25.70087557326731
 31
0.0
  0
LINE
  5
A05
102
{ACAD_REACTORS
330
C5C
102
}
330
1F
100
AcDbEntity
  8
0
100
AcDbLine
 10
10.08803062664807
 20
28.57587557326731
 30
0.0
 11
10.08803062664807
 21
25.32587557326731
 31
0.0
  0
LINE
  5
A06
330
1F
100
AcDbEntity
  8
0
100
AcDbLine
 10
9.670380200344817
 20
29.11325586955062
 30
0.0
 11
9.670380200344817
 21
24.89033330231068
 31
0.0
  0
LINE
  5
A07
330
1F
100
AcDbEntity
  8
0
100
AcDbLine
 10
10.08288020034481
 20
29.09601958851407
 30
0.0
 11
10.08288020034481
 21
24.91618803796443
 31
0.0
  0
DIMENSION
  5
A08
330
1F
100
AcDbEntity
  8
EXT
100
AcDbDimension
  2
*D28
 10
7.643207415454691
 20
26.81657079011653
 30
0.0
 11
7.143207415454691
 21
26.81657079011653
 31
0.0
 70
    32
 71
     5
  3
Standard
100
AcDbAlignedDimension
 13
6.643207415454691
 23
26.95087557326731
 33
0.0
 14
7.643207415454691
 24
26.95087557326731
 34
0.0
100
AcDbRotatedDimension
1001
ACAD
1000
DSTYLE
1002
{
1070
    40
1040
0.5
1002
}
  0
TEXT
  5
A09
330
1F
100
AcDbEntity
  8
0
100
AcDbText
 10
7.290253318186369
 20
27.10735213699593
 30
0.0
 40
0.09
  1
HAND
 50
90.0
100
AcDbText
  0
LINE
  5
A0A
330
1F
100
AcDbEntity
  8
0
100
AcDbLine
 10
7.240090338171649
 20
25.35137832567939
 30
0.0
 11
7.319010466750876
 21
25.1409877726562
 31
0.0
  0
LINE
  5
A0B
330
1F
100
AcDbEntity
  8
0
100
AcDbLine
 10
6.573655295104993
 20
25.23741675867522
 30
0.0
 11
7.187476919118831
 21
25.23741675867522
 31
0.0
  0
LINE
  5
A0C
330
1F
100
AcDbEntity
  8
0
100
AcDbLine
 10
7.187476919118831
 20
25.23741675867522
 30
0.0
 11
7.240090338171649
 21
25.35137832567939
 31
0.0
  0
DIMENSION
  5
A0D
102
{ACAD_XDICTIONARY
360
A0E
102
}
102
{ACAD_REACTORS
330
A0F
102
}
330
1F
100
AcDbEntity
  8
EXT
100
AcDbDimension
  2
*D31
 10
9.643207415454691
 20
25.56626106582074
 30
0.0
 11
8.643207415454691
 21
25.56626106582074
 31
0.0
 70
    32
 71
     5
 42
2.0
  3
Standard
100
AcDbAlignedDimension
 13
7.643207415454691
 23
26.30371965486928
 33
0.0
 14
9.643207415454691
 24
26.30371965486928
 34
0.0
100
AcDbRotatedDimension
1001
ACAD
1000
DSTYLE
1002
{
1070
    40
1040
0.5
1002
}
  0
LINE
  5
A10
330
1F
100
AcDbEntity
  8
0
100
AcDbLine
 10
8.64321809221496
 20
25.70087557326731
 30
0.0
 11
9.64321809221496
 21
25.70087557326731
 31
0.0
  0
LINE
  5
A11
102
{ACAD_REACTORS
330
A0F
102
}
330
1F
100
AcDbEntity
  8
0
100
AcDbLine
 10
7.634576274757472
 20
26.30371965486928
 30
0.0
 11
8.633819026572325
 21
26.30371965486928
 31
0.0
  0
LINE
  5
A12
330
1F
100
AcDbEntity
  8
0
100
AcDbLine
 10
7.336548073318192
 20
25.24618304916778
 30
0.0
 11
7.774992432957128
 21
25.24618304916778
 31
0.0
  0
LINE
  5
A13
330
1F
100
AcDbEntity
  8
0
100
AcDbLine
 10
7.319010466750876
 20
25.1409877726562
 30
0.0
 11
7.336548073318192
 21
25.24618304916778
 31
0.0
  0
TEXT
  5
A14
330
1F
100
AcDbEntity
  8
0
100
AcDbText
 10
7.422021273359446
 20
27.02167742371424
 30
0.0
 40
0.09
  1
WHEEL
 50
90.0
100
AcDbText
  0
LINE
  5
A15
330
1F
100
AcDbEntity
  8
0
100
AcDbLine
 10
8.643207415454691
 20
25.70087557326731
 30
0.0
 11
8.643207415454691
 21
26.30371965486928
 31
0.0
  0
TEXT
  5
A16
330
1F
100
AcDbEntity
  8
0
100
AcDbText
 10
8.749096816788091
 20
26.79291194307475
 30
0.0
 40
0.09
  1
DRIVE
 50
90.0
100
AcDbText
  0
TEXT
  5
A17
330
1F
100
AcDbEntity
  8
0
100
AcDbText
 10
8.880864771961169
 20
26.70723722979306
 30
0.0
 40
0.09
  1
PULLEY
 50
90.0
100
AcDbText
  0
LINE
  5
A18
330
1F
100
AcDbEntity
  8
0
100
AcDbLine
 10
9.69548524299671
 20
24.87309702127411
 30
0.0
 11
9.816176233245016
 21
25.05407933325325
 31
0.0
  0
LINE
  5
A19
330
1F
100
AcDbEntity
  8
0
100
AcDbLine
 10
9.816176233245016
 20
25.05407933325325
 30
0.0
 11
9.876521578531423
 21
24.75244200702185
 31
0.0
  0
LINE
  5
A1A
330
1F
100
AcDbEntity
  8
0
100
AcDbLine
 10
9.436861735275442
 20
24.87309702127411
 30
0.0
 11
9.69548524299671
 21
24.87309702127411
 31
0.0
  0
LINE
  5
A1B
330
1F
100
AcDbEntity
  8
0
100
AcDbLine
 10
9.911004632980848
 20
24.87309702127411
 30
0.0
 11
10.17824890431444
 21
24.87309702127411
 31
0.0
  0
LINE
  5
A1C
330
1F
100
AcDbEntity
  8
0
100
AcDbLine
 10
9.876521578531423
 20
24.75244200702185
 30
0.0
 11
9.911004632980848
 21
24.87309702127411
 31
0.0
  0
LINE
  5
A1D
330
1F
100
AcDbEntity
  8
0
100
AcDbLine
 10
10.13542837758411
 20
27.60712557326732
 30
0.0
 11
9.686401067396346
 21
27.60712557326732
 31
0.0
  0
LINE
  5
A1E
330
1F
100
AcDbEntity
  8
0
100
AcDbLine
 10
10.13542837758411
 20
26.29462557326732
 30
0.0
 11
9.686401067396346
 21
26.29462557326732
 31
0.0
  0
LINE
  5
A1F
330
1F
100
AcDbEntity
  8
0
100
AcDbLine
 10
9.686401067396346
 20
26.29462557326732
 30
0.0
 11
9.686401067396346
 21
27.60712557326732
 31
0.0
  0
LINE
  5
A20
330
1F
100
AcDbEntity
  8
0
100
AcDbLine
 10
9.67907785620296
 20
27.20087557326731
 30
0.0
 11
9.67907785620296
 21
26.70087557326731
 31
0.0
  0
LINE
  5
A21
330
1F
100
AcDbEntity
  8
0
100
AcDbLine
 10
10.13542837758411
 20
26.95087557326731
 30
0.0
 11
10.13542837758411
 21
26.16347557326731
 31
0.0
  0
LINE
  5
A22
330
1F
100
AcDbEntity
  8
0
100
AcDbLine
 10
10.13542837758411
 20
26.95087557326731
 30
0.0
 11
10.13542837758411
 21
26.29462557326732
 31
0.0
  0
TEXT
  5
A23
330
1F
100
AcDbEntity
  8
0
100
AcDbText
 10
9.842874708901675
 20
26.6931431698727
 30
0.0
 40
0.09
  1
LOCKING
 50
90.0
100
AcDbText
  0
TEXT
  5
A24
330
1F
100
AcDbEntity
  8
0
100
AcDbText
 10
9.974642664074753
 20
26.72143002359514
 30
0.0
 40
0.09
  1
COLLAR
 50
90.0
100
AcDbText
  0
LINE
  5
A25
330
1F
100
AcDbEntity
  8
0
100
AcDbLine
 10
10.13542837758411
 20
27.26337557326731
 30
0.0
 11
10.13542837758411
 21
26.63837557326731
 31
0.0
  0
LINE
  5
A26
330
1F
100
AcDbEntity
  8
0
100
AcDbLine
 10
10.13542837758411
 20
26.63837557326731
 30
0.0
 11
10.13542837758411
 21
27.26337557326731
 31
0.0
  0
LINE
  5
A27
330
1F
100
AcDbEntity
  8
0
100
AcDbLine
 10
10.13542837758411
 20
26.95087557326731
 30
0.0
 11
10.13542837758411
 21
27.16962557326731
 31
0.0
  0
LINE
  5
A28
330
1F
100
AcDbEntity
  8
0
100
AcDbLine
 10
10.13542837758411
 20
26.95087557326731
 30
0.0
 11
10.13542837758411
 21
27.60712557326732
 31
0.0
  0
LINE
  5
A29
330
1F
100
AcDbEntity
  8
0
100
AcDbLine
 10
10.13542837758411
 20
26.95087557326731
 30
0.0
 11
10.13542837758411
 21
26.73212557326731
 31
0.0
  0
TEXT
  5
A2A
330
1F
100
AcDbEntity
  8
0
100
AcDbText
 10
10.45268616258738
 20
27.03887104160305
 30
0.0
 40
0.09
  1
BEARING
 50
90.0
100
AcDbText
  0
LINE
  5
A2B
330
1F
100
AcDbEntity
  8
0
100
AcDbLine
 10
7.240090338171649
 20
28.82504166388689
 30
0.0
 11
7.319010466750876
 21
28.6146511108637
 31
0.0
  0
LINE
  5
A2C
330
1F
100
AcDbEntity
  8
0
100
AcDbLine
 10
6.573655295104993
 20
28.71108009688272
 30
0.0
 11
7.187476919118831
 21
28.71108009688272
 31
0.0
  0
LINE
  5
A2D
330
1F
100
AcDbEntity
  8
0
100
AcDbLine
 10
7.187476919118831
 20
28.71108009688272
 30
0.0
 11
7.240090338171649
 21
28.82504166388689
 31
0.0
  0
LINE
  5
A2E
102
{ACAD_REACTORS
330
A37
102
}
330
1F
100
AcDbEntity
  8
0
100
AcDbLine
 10
9.64321809221496
 20
28.20087557326731
 30
0.0
 11
8.64321809221496
 21
28.20087557326731
 31
0.0
  0
LINE
  5
A2F
330
1F
100
AcDbEntity
  8
0
100
AcDbLine
 10
7.634576274757472
 20
27.64816046448307
 30
0.0
 11
8.633819026572325
 21
27.64816046448307
 31
0.0
  0
LINE
  5
A30
330
1F
100
AcDbEntity
  8
0
100
AcDbLine
 10
7.336548073318192
 20
28.71984638737528
 30
0.0
 11
7.774992432957128
 21
28.71984638737528
 31
0.0
  0
LINE
  5
A31
330
1F
100
AcDbEntity
  8
0
100
AcDbLine
 10
7.319010466750876
 20
28.6146511108637
 30
0.0
 11
7.336548073318192
 21
28.71984638737528
 31
0.0
  0
LINE
  5
A32
330
1F
100
AcDbEntity
  8
0
100
AcDbLine
 10
8.643207415454691
 20
28.20087557326731
 30
0.0
 11
8.643207415454691
 21
27.64816046448307
 31
0.0
  0
LINE
  5
A33
330
1F
100
AcDbEntity
  8
0
100
AcDbLine
 10
9.69548524299671
 20
29.09601958851407
 30
0.0
 11
9.816176233245016
 21
29.2770019004932
 31
0.0
  0
TEXT
  5
A34
330
1F
100
AcDbEntity
  8
EXT
100
AcDbText
 10
9.075081091364188
 20
29.83421919382394
 30
0.0
 40
0.09
  1
OVERHUNG LOAD
100
AcDbText
  0
DIMENSION
  5
A35
102
{ACAD_XDICTIONARY
360
A36
102
}
102
{ACAD_REACTORS
330
A37
102
}
330
1F
100
AcDbEntity
  8
EXT
100
AcDbDimension
  2
*D32
 10
10.13542837758411
 20
29.67061292197233
 30
0.0
 11
9.639323234899539
 21
29.67061292197233
 31
0.0
 70
    32
 71
     5
 42
0.9922102853691594
  3
Standard
100
AcDbAlignedDimension
 13
9.14321809221496
 23
28.20087557326731
 33
0.0
 14
10.13542837758411
 24
27.73827557326732
 34
0.0
100
AcDbRotatedDimension
1001
ACAD
1000
DSTYLE
1002
{
1070
    40
1040
0.5
1002
}
  0
TEXT
  5
A38
330
1F
100
AcDbEntity
  8
EXT
100
AcDbText
 10
9.2548194284751
 20
28.68683654758891
 30
0.0
 40
0.09
  1
LOAD C/L
 50
90.0
100
AcDbText
  0
LINE
  5
A39
330
1F
100
AcDbEntity
  8
0
100
AcDbLine
 10
9.670380200344817
 20
28.22673009952179
 30
0.0
 11
9.670380200344817
 21
29.11325586955062
 31
0.0
  0
LINE
  5
A3A
330
1F
100
AcDbEntity
  8
0
100
AcDbLine
 10
9.436861735275442
 20
29.09601958851407
 30
0.0
 11
9.69548524299671
 21
29.09601958851407
 31
0.0
  0
LINE
  5
A3B
330
1F
100
AcDbEntity
  8
0
100
AcDbLine
 10
10.08288020034481
 20
27.63298009952179
 30
0.0
 11
10.08288020034481
 21
29.09601958851407
 31
0.0
  0
TEXT
  5
A3C
330
1F
100
AcDbEntity
  8
0
100
AcDbText
 10
9.897983028137653
 20
27.8054270680573
 30
0.0
 40
0.09
  1
3/8" MOTOR
 50
90.0
100
AcDbText
  0
TEXT
  5
A3D
330
1F
100
AcDbEntity
  8
0
100
AcDbText
 10
10.02975098331073
 20
27.71975235477561
 30
0.0
 40
0.09
  1
MOUNTING PLATE
 50
90.0
100
AcDbText
  0
TEXT
  5
A3E
330
1F
100
AcDbEntity
  8
EXT
100
AcDbText
 10
10.22122139343274
 20
27.8079936454492
 30
0.0
 40
0.09
  1
12mm
100
AcDbText
  0
LINE
  5
A3F
330
1F
100
AcDbEntity
  8
0
100
AcDbLine
 10
9.911004632980848
 20
29.09601958851407
 30
0.0
 11
10.17824890431444
 21
29.09601958851407
 31
0.0
  0
LINE
  5
A40
330
1F
100
AcDbEntity
  8
0
100
AcDbLine
 10
9.816176233245016
 20
29.2770019004932
 30
0.0
 11
9.876521578531423
 21
28.9753645742618
 31
0.0
  0
LINE
  5
A41
330
1F
100
AcDbEntity
  8
0
100
AcDbLine
 10
9.876521578531423
 20
28.9753645742618
 30
0.0
 11
9.911004632980848
 21
29.09601958851407
 31
0.0
  0
LINE
  5
A42
330
1F
100
AcDbEntity
  8
EXT
100
AcDbLine
 10
27.02439034647145
 20
25.11749530836495
 30
0.0
 11
27.02439034647145
 21
27.75468257410219
 31
0.0
  0
LINE
  5
A43
330
1F
100
AcDbEntity
  8
EXT
100
AcDbLine
 10
22.12592141169599
 20
27.74978524828785
 30
0.0
 11
22.12592141169599
 21
26.18335726209815
 31
0.0
  0
LINE
  5
A44
330
1F
100
AcDbEntity
  8
EXT
100
AcDbLine
 10
26.87592141169599
 20
26.18335726209815
 30
0.0
 11
26.87592141169599
 21
27.74978524828785
 31
0.0
  0
LINE
  5
A46
102
{ACAD_REACTORS
330
BE1
102
}
330
1F
100
AcDbEntity
  8
0
100
AcDbLine
 10
13.53203062664807
 20
27.30937557326731
 30
0.0
 11
13.53203062664807
 21
27.73437557326731
 31
0.0
  0
LINE
  5
A47
330
1F
100
AcDbEntity
  8
0
100
AcDbLine
 10
11.83803062664807
 20
25.82587557326732
 30
0.0
 11
11.83803062664807
 21
28.07587557326732
 31
0.0
  0
LINE
  5
A48
102
{ACAD_REACTORS
330
A53
102
}
330
1F
100
AcDbEntity
  8
0
100
AcDbLine
 10
11.28203062664807
 20
27.41052557326732
 30
0.0
 11
11.28203062664808
 21
27.73437557326731
 31
0.0
  0
LINE
  5
A49
102
{ACAD_REACTORS
330
9F9
102
}
330
1F
100
AcDbEntity
  8
0
100
AcDbLine
 10
10.73242837758412
 20
26.95087557326731
 30
0.0
 11
10.73242837758412
 21
27.73827557326732
 31
0.0
  0
LINE
  5
A4A
330
1F
100
AcDbEntity
  8
0
100
AcDbLine
 10
10.60742837758412
 20
27.73827557326732
 30
0.0
 11
10.60742837758412
 21
27.61327557326731
 31
0.0
  0
DIMENSION
  5
A4B
102
{ACAD_XDICTIONARY
360
A4C
102
}
102
{ACAD_REACTORS
330
A4D
102
}
330
1F
100
AcDbEntity
  8
EXT
100
AcDbDimension
  2
*D33
 10
10.86338214973628
 20
26.16347557326731
 30
0.0
 11
10.86338214973627
 21
26.95087557326732
 31
0.0
 70
    32
 71
     5
 42
1.574800000000003
  3
Standard
100
AcDbAlignedDimension
 13
11.20442837758411
 23
27.73827557326732
 33
0.0
 14
11.20442837758411
 24
26.16347557326731
 34
0.0
 50
90.0
100
AcDbRotatedDimension
1001
ACAD
1000
DSTYLE
1002
{
1070
    40
1040
0.5
1002
}
  0
LINE
  5
A4E
102
{ACAD_REACTORS
330
A4D
330
9F9
102
}
330
1F
100
AcDbEntity
  8
0
100
AcDbLine
 10
11.20442837758411
 20
27.73827557326732
 30
0.0
 11
11.20442837758411
 21
26.16347557326731
 31
0.0
  0
LINE
  5
A4F
102
{ACAD_REACTORS
330
9F6
102
}
330
1F
100
AcDbEntity
  8
0
100
AcDbLine
 10
10.73242837758412
 20
27.73827557326732
 30
0.0
 11
10.73242837758412
 21
26.16347557326731
 31
0.0
  0
LINE
  5
A50
102
{ACAD_REACTORS
330
9F6
102
}
330
1F
100
AcDbEntity
  8
0
100
AcDbLine
 10
10.60742837758412
 20
27.73827557326732
 30
0.0
 11
10.60742837758412
 21
26.16347557326731
 31
0.0
  0
DIMENSION
  5
A51
102
{ACAD_XDICTIONARY
360
A52
102
}
102
{ACAD_REACTORS
330
A53
102
}
330
1F
100
AcDbEntity
  8
EXT
100
AcDbDimension
  2
*D34
 10
11.56833454258955
 20
26.16737557326731
 30
0.0
 11
11.56833454258955
 21
26.95087557326731
 31
0.0
 70
    32
 71
     5
 42
1.567
  3
Standard
100
AcDbAlignedDimension
 13
11.28203062664808
 23
27.73437557326731
 33
0.0
 14
11.28203062664807
 24
26.16737557326731
 34
0.0
 50
90.0
100
AcDbRotatedDimension
1001
ACAD
1000
DSTYLE
1002
{
1070
    40
1040
0.5
1002
}
  0
LINE
  5
A55
330
1F
100
AcDbEntity
  8
0
100
AcDbLine
 10
13.53203062664807
 20
27.30937557326731
 30
0.0
 11
12.03203062664807
 21
27.30937557326731
 31
0.0
  0
LINE
  5
A56
330
1F
100
AcDbEntity
  8
0
100
AcDbLine
 10
13.53203062664808
 20
26.59237557326731
 30
0.0
 11
12.03203062664807
 21
26.59237557326731
 31
0.0
  0
LINE
  5
A57
102
{ACAD_REACTORS
330
A53
330
C5C
102
}
330
1F
100
AcDbEntity
  8
0
100
AcDbLine
 10
11.28203062664807
 20
26.16737557326731
 30
0.0
 11
13.53203062664808
 21
26.16737557326731
 31
0.0
  0
TEXT
  5
A58
330
1F
100
AcDbEntity
  8
EXT
100
AcDbText
 10
11.97412915771812
 20
26.3425706240161
 30
0.0
 40
0.09
  1
SPINDLE CROSS SECTION
100
AcDbText
  0
TEXT
  5
A59
330
1F
100
AcDbEntity
  8
EXT
100
AcDbText
 10
15.08072472646353
 20
29.03369782467717
 30
0.0
 40
0.09
  1
EXIST.
100
AcDbText
  0
LINE
  5
A5B
330
1F
100
AcDbEntity
  8
0
100
AcDbLine
 10
11.83803062664807
 20
25.82587557326732
 30
0.0
 11
10.83803062664807
 21
25.82587557326732
 31
0.0
  0
LINE
  5
A5C
102
{ACAD_REACTORS
330
A53
102
}
330
1F
100
AcDbEntity
  8
0
100
AcDbLine
 10
11.28203062664807
 20
26.49122557326731
 30
0.0
 11
11.28203062664807
 21
26.16737557326731
 31
0.0
  0
LINE
  5
A5D
330
1F
100
AcDbEntity
  8
0
100
AcDbLine
 10
10.73242837758412
 20
26.95087557326731
 30
0.0
 11
10.73242837758412
 21
26.29462557326732
 31
0.0
  0
LINE
  5
A5E
330
1F
100
AcDbEntity
  8
0
100
AcDbLine
 10
10.73242837758412
 20
26.95087557326731
 30
0.0
 11
10.73242837758412
 21
26.16347557326731
 31
0.0
  0
LINE
  5
A5F
102
{ACAD_REACTORS
330
A4D
102
}
330
1F
100
AcDbEntity
  8
0
100
AcDbLine
 10
10.73242837758412
 20
26.16347557326731
 30
0.0
 11
11.20442837758411
 21
26.16347557326731
 31
0.0
  0
LINE
  5
A60
330
1F
100
AcDbEntity
  8
0
100
AcDbLine
 10
10.83803062664807
 20
25.32587557326731
 30
0.0
 11
10.83803062664807
 21
25.82587557326732
 31
0.0
  0
LINE
  5
A61
102
{ACAD_REACTORS
330
9F6
102
}
330
1F
100
AcDbEntity
  8
0
100
AcDbLine
 10
10.60742837758412
 20
26.28847557326731
 30
0.0
 11
10.73242837758412
 21
26.28847557326731
 31
0.0
  0
TEXT
  5
A62
330
1F
100
AcDbEntity
  8
0
100
AcDbText
 10
11.04968616258738
 20
27.03887104160305
 30
0.0
 40
0.09
  1
BEARING
 50
90.0
100
AcDbText
  0
TEXT
  5
A63
330
1F
100
AcDbEntity
  8
EXT
100
AcDbText
 10
10.78738259511162
 20
26.72841560919488
 30
0.0
 40
0.09
  1
40mm
100
AcDbText
  0
LINE
  5
A64
330
1F
100
AcDbEntity
  8
0
100
AcDbLine
 10
10.73242837758412
 20
26.63837557326731
 30
0.0
 11
10.73242837758412
 21
27.26337557326731
 31
0.0
  0
LINE
  5
A65
330
1F
100
AcDbEntity
  8
0
100
AcDbLine
 10
10.73242837758412
 20
27.26337557326731
 30
0.0
 11
10.73242837758412
 21
26.63837557326731
 31
0.0
  0
LINE
  5
A66
330
1F
100
AcDbEntity
  8
0
100
AcDbLine
 10
10.73242837758412
 20
26.95087557326731
 30
0.0
 11
10.73242837758412
 21
27.60712557326732
 31
0.0
  0
LINE
  5
A67
330
1F
100
AcDbEntity
  8
0
100
AcDbLine
 10
10.73242837758412
 20
26.95087557326731
 30
0.0
 11
10.73242837758412
 21
27.16962557326731
 31
0.0
  0
LINE
  5
A68
330
1F
100
AcDbEntity
  8
0
100
AcDbLine
 10
10.73242837758412
 20
26.95087557326731
 30
0.0
 11
10.73242837758412
 21
26.73212557326731
 31
0.0
  0
LINE
  5
A69
330
1F
100
AcDbEntity
  8
0
100
AcDbLine
 10
10.60742837758412
 20
27.61327557326731
 30
0.0
 11
10.73242837758412
 21
27.61327557326731
 31
0.0
  0
LINE
  5
A6A
330
1F
100
AcDbEntity
  8
0
100
AcDbLine
 10
10.60742837758412
 20
27.61327557326731
 30
0.0
 11
10.73242837758412
 21
27.61327557326731
 31
0.0
  0
LINE
  5
A6B
330
1F
100
AcDbEntity
  8
0
100
AcDbLine
 10
11.21376712706383
 20
26.49122557326731
 30
0.0
 11
11.21376712706383
 21
27.41052557326732
 31
0.0
  0
LINE
  5
A6C
330
1F
100
AcDbEntity
  8
0
100
AcDbLine
 10
11.21376712706383
 20
26.49122557326731
 30
0.0
 11
11.28203062664807
 21
26.49122557326731
 31
0.0
  0
LINE
  5
A6D
330
1F
100
AcDbEntity
  8
0
100
AcDbLine
 10
11.21376712706383
 20
27.41052557326732
 30
0.0
 11
11.28203062664807
 21
27.41052557326732
 31
0.0
  0
LINE
  5
A6E
330
1F
100
AcDbEntity
  8
0
100
AcDbLine
 10
12.03203062664807
 20
27.30937557326731
 30
0.0
 11
12.03203062664807
 21
26.59237557326731
 31
0.0
  0
TEXT
  5
A6F
330
1F
100
AcDbEntity
  8
EXT
100
AcDbText
 10
12.13511748671455
 20
27.00849596325101
 30
0.0
 40
0.09
  1
UNMACHINED
100
AcDbText
  0
TEXT
  5
A70
330
1F
100
AcDbEntity
  8
EXT
100
AcDbText
 10
12.14700174390937
 20
26.87672800807793
 30
0.0
 40
0.09
  1
BALLSCREW
100
AcDbText
  0
TEXT
  5
A71
330
1F
100
AcDbEntity
  8
EXT
100
AcDbText
 10
12.06132703062768
 20
26.74496005290485
 30
0.0
 40
0.09
  1
 PRESS FIT
100
AcDbText
  0
LINE
  5
A73
330
1F
100
AcDbEntity
  8
0
100
AcDbLine
 10
13.53203062664808
 20
26.16737557326731
 30
0.0
 11
13.53203062664808
 21
26.59237557326731
 31
0.0
  0
DIMENSION
  5
A74
330
1F
100
AcDbEntity
  8
EXT
100
AcDbDimension
  2
*D27
 10
13.42197531262321
 20
26.59237557326731
 30
0.0
 11
13.42197531262321
 21
26.95087557326732
 31
0.0
 70
    32
 71
     5
 42
0.7169999999999988
  3
Standard
100
AcDbAlignedDimension
 13
13.33065333461347
 23
27.30937557326731
 33
0.0
 14
13.33065333461347
 24
26.59237557326731
 34
0.0
 50
90.0
100
AcDbRotatedDimension
1001
ACAD
1000
DSTYLE
1002
{
1070
    40
1040
0.5
1002
}
  0
TEXT
  5
A75
330
1F
100
AcDbEntity
  8
EXT
100
AcDbText
 10
23.50097702120257
 20
26.90408015377411
 30
0.0
 40
0.09
  1
PRELOADED NUT ASS'Y
100
AcDbText
  0
LINE
  5
A76
330
1F
100
AcDbEntity
  8
EXT
100
AcDbLine
 10
22.12592141169599
 20
26.18335726209815
 30
0.0
 11
26.87592141169599
 21
26.18335726209815
 31
0.0
  0
CIRCLE
  5
A77
330
1F
100
AcDbEntity
  8
EXT
100
AcDbCircle
 10
26.20002343332785
 20
24.9389357704004
 30
0.0
 40
0.0990674995033953
  0
CIRCLE
  5
A78
330
1F
100
AcDbEntity
  8
EXT
100
AcDbCircle
 10
25.43061434794978
 20
24.9389357704004
 30
0.0
 40
0.0990674995033953
  0
LINE
  5
A79
330
1F
100
AcDbEntity
  8
EXT
100
AcDbLine
 10
25.33443825422243
 20
25.19990744339204
 30
0.0
 11
25.33443825422243
 21
26.16138194171323
 31
0.0
  0
LINE
  5
A7A
330
1F
100
AcDbEntity
  8
EXT
100
AcDbLine
 10
26.87325642497859
 20
24.8702590205203
 30
0.0
 11
27.02439034647145
 21
25.11749530836495
 31
0.0
  0
LINE
  5
A7B
330
1F
100
AcDbEntity
  8
EXT
100
AcDbLine
 10
26.87592141169599
 20
26.18335726209815
 30
0.0
 11
26.87592141169599
 21
25.17243673171634
 31
0.0
  0
TEXT
  5
A7C
330
1F
100
AcDbEntity
  8
EXT
100
AcDbText
 10
16.56765342487324
 20
26.88992054787544
 30
0.0
 40
0.09
  1
AVAILABLE MILL SCREW DISTANCE
100
AcDbText
  0
LINE
  5
A86
102
{ACAD_REACTORS
330
A53
102
}
330
1F
100
AcDbEntity
  8
0
100
AcDbLine
 10
11.28203062664808
 20
27.73437557326731
 30
0.0
 11
13.53203062664807
 21
27.73437557326731
 31
0.0
  0
LEADER
  5
A87
330
1F
100
AcDbEntity
  8
EXT
100
AcDbLeader
  3
Standard
 73
     0
 40
0.09
 41
0.93
 76
     3
 10
11.86784199204241
 20
27.75651087937294
 30
0.0
 10
12.34224675229835
 20
28.20113262211247
 30
0.0
 10
12.46084785847249
 20
28.20113262211247
 30
0.0
340
A98
213
0.0
223
-0.045
233
0.0
1001
ACAD
1000
DSTYLE
1002
{
1070
   147
1040
0.09
1070
    77
1070
     0
1070
    40
1040
0.5
1002
}
  0
LINE
  5
A89
330
1F
100
AcDbEntity
  8
0
100
AcDbLine
 10
11.83803062664807
 20
28.07587557326732
 30
0.0
 11
10.83803062664807
 21
28.07587557326732
 31
0.0
  0
DIMENSION
  5
A8A
330
1F
100
AcDbEntity
  8
EXT
100
AcDbDimension
  2
*D35
 10
11.83803062664807
 20
28.46110013087154
 30
0.0
 11
11.33803062664807
 21
28.46110013087154
 31
0.0
 70
    32
 71
     5
 42
0.9999999999999982
  3
Standard
100
AcDbAlignedDimension
 13
10.83803062664807
 23
27.8865743461635
 33
0.0
 14
11.83803062664807
 24
27.8865743461635
 34
0.0
100
AcDbRotatedDimension
1001
ACAD
1000
DSTYLE
1002
{
1070
    40
1040
0.5
1002
}
  0
TEXT
  5
A8D
330
1F
100
AcDbEntity
  8
EXT
100
AcDbText
 10
15.08235010431305
 20
28.88377348222101
 30
0.0
 40
0.09
  1
MILL
100
AcDbText
  0
LINE
  5
A8F
102
{ACAD_REACTORS
330
9F9
102
}
330
1F
100
AcDbEntity
  8
0
100
AcDbLine
 10
10.73242837758412
 20
27.73827557326732
 30
0.0
 11
11.20442837758411
 21
27.73827557326732
 31
0.0
  0
LINE
  5
A90
330
1F
100
AcDbEntity
  8
0
100
AcDbLine
 10
10.83803062664807
 20
28.57587557326731
 30
0.0
 11
10.83803062664807
 21
28.07587557326732
 31
0.0
  0
LINE
  5
A91
330
1F
100
AcDbEntity
  8
0
100
AcDbLine
 10
10.60742837758412
 20
27.73827557326732
 30
0.0
 11
10.60742837758412
 21
27.73827557326732
 31
0.0
  0
LINE
  5
A92
330
1F
100
AcDbEntity
  8
0
100
AcDbLine
 10
11.22042943309396
 20
27.73827557326732
 30
0.0
 11
11.22042943309396
 21
27.73827557326732
 31
0.0
  0
LINE
  5
A93
330
1F
100
AcDbEntity
  8
EXT
100
AcDbLine
 10
14.96890042581493
 20
30.34576609827012
 30
0.0
 11
15.15850119241125
 21
30.34576609827012
 31
0.0
  0
LINE
  5
A94
330
1F
100
AcDbEntity
  8
EXT
100
AcDbLine
 10
14.84824562096191
 20
30.32852457104547
 30
0.0
 11
14.87410014721638
 21
30.41473220716891
 31
0.0
  0
LINE
  5
A95
330
1F
100
AcDbEntity
  8
EXT
100
AcDbLine
 10
14.87410014721638
 20
30.41473220716891
 30
0.0
 11
14.93442765434253
 21
30.2336958716342
 31
0.0
  0
LINE
  5
A96
330
1F
100
AcDbEntity
  8
EXT
100
AcDbLine
 10
14.93442765434253
 20
30.2336958716342
 30
0.0
 11
14.96890042581493
 21
30.34576609827012
 31
0.0
  0
LINE
  5
A97
330
1F
100
AcDbEntity
  8
EXT
100
AcDbLine
 10
14.71897236149173
 20
30.32852457104547
 30
0.0
 11
14.84824562096191
 21
30.32852457104547
 31
0.0
  0
MTEXT
  5
A98
102
{ACAD_REACTORS
330
A87
102
}
330
1F
100
AcDbEntity
  8
EXT
100
AcDbMText
 10
12.50584785847249
 20
28.24613262211247
 30
0.0
 40
0.09
 41
0.0
 71
     1
 72
     1
  1
1.5748" BORE
 73
     1
 44
1.0
  0
MTEXT
  5
A99
102
{ACAD_REACTORS
330
A9B
102
}
330
1F
100
AcDbEntity
  8
EXT
100
AcDbMText
 10
25.98071569868079
 20
30.22259408634096
 30
0.0
 40
0.09
 41
0.0
 71
     9
 72
     1
  1
\A1;CAN MACHINE ANOTHER 3/4" HERE FOR ADDITIONAL TRAVEL
 73
     1
 44
1.0
  0
LINE
  5
A9A
102
{ACAD_REACTORS
330
BE1
330
C3B
102
}
330
1F
100
AcDbEntity
  8
EXT
100
AcDbLine
 10
26.87592141169599
 20
27.74978524828785
 30
0.0
 11
22.12592141169599
 21
27.74978524828785
 31
0.0
  0
LEADER
  5
A9B
330
1F
100
AcDbEntity
  8
EXT
100
AcDbLeader
  3
Standard
 73
     0
 40
0.0900000000000001
 41
4.470000000000002
 76
     3
 10
26.7401670401832
 20
29.11382460628989
 30
0.0
 10
26.34172301958034
 20
30.26759408634096
 30
0.0
 10
26.0257156986808
 20
30.26759408634096
 30
0.0
340
A99
213
0.0
223
0.045
233
0.0
1001
ACAD
1000
DSTYLE
1002
{
1070
   147
1040
0.09
1070
    77
1070
     0
1070
    40
1040
0.5
1002
}
  0
TEXT
  5
A9C
330
1F
100
AcDbEntity
  8
0
100
AcDbText
 10
27.04853505660732
 20
27.9192106528318
 30
0.0
 40
0.09
  1
Y AXIS LIMIT
 50
90.0
100
AcDbText
  0
LINE
  5
A9D
330
1F
100
AcDbEntity
  8
EXT
100
AcDbLine
 10
27.02439034647145
 20
27.75468257410219
 30
0.0
 11
26.87325642497859
 21
27.75468257410219
 31
0.0
  0
LINE
  5
A9E
330
1F
100
AcDbEntity
  8
EXT
100
AcDbLine
 10
24.22154289211715
 20
23.70275421394055
 30
0.0
 11
26.00767124587318
 21
23.70275421394055
 31
0.0
  0
LINE
  5
A9F
330
1F
100
AcDbEntity
  8
EXT
100
AcDbLine
 10
24.22154289211715
 20
24.03240263681228
 30
0.0
 11
25.33443825422243
 21
25.19990744339204
 31
0.0
  0
LINE
  5
AA0
330
1F
100
AcDbEntity
  8
EXT
100
AcDbLine
 10
25.99393176795933
 20
24.03240263681228
 30
0.0
 11
24.22154289211715
 21
24.03240263681228
 31
0.0
  0
LINE
  5
AA1
330
1F
100
AcDbEntity
  8
EXT
100
AcDbLine
 10
24.22154289211715
 20
24.03240263681228
 30
0.0
 11
24.22154289211715
 21
23.70275421394055
 31
0.0
  0
TEXT
  5
AA2
330
1F
100
AcDbEntity
  8
EXT
100
AcDbText
 10
24.98483744808305
 20
23.42903656294716
 30
0.0
 40
0.09
  1
TABLE ATTACH BRACKET (N.T.S.)
100
AcDbText
  0
LINE
  5
AA3
330
1F
100
AcDbEntity
  8
EXT
100
AcDbLine
 10
26.00767124587318
 20
23.70275421394055
 30
0.0
 11
26.87325642497859
 21
24.8702590205203
 31
0.0
  0
LINE
  5
AA4
330
1F
100
AcDbEntity
  8
EXT
100
AcDbLine
 10
26.87592141169599
 20
25.17243673171634
 30
0.0
 11
25.99393176795933
 21
24.03240263681228
 31
0.0
  0
CIRCLE
  5
AA5
330
1F
100
AcDbEntity
  8
EXT
100
AcDbCircle
 10
25.00469145540907
 20
24.33458034800832
 30
0.0
 40
0.0990674995033953
  0
CIRCLE
  5
AA6
330
1F
100
AcDbEntity
  8
EXT
100
AcDbCircle
 10
25.84279784646649
 20
24.27963892465692
 30
0.0
 40
0.0990674995033953
  0
LINE
  5
AA7
330
1F
100
AcDbEntity
  8
EXT
100
AcDbLine
 10
26.00767124587318
 20
23.70275421394055
 30
0.0
 11
26.00767124587318
 21
24.03240263681228
 31
0.0
  0
TEXT
  5
B5E
330
1F
100
AcDbEntity
  8
0
100
AcDbText
 10
8.913707642263867
 20
23.46853388299864
 30
0.0
 40
0.2
  1
SPINDLE DESIGN FOR CNC MILL CONVERSION
100
AcDbText
  0
TEXT
  5
B5F
330
1F
100
AcDbEntity
  8
0
100
AcDbText
 10
8.913707642263867
 20
23.05647338371812
 30
0.0
 40
0.2
  1
REVISED TO ADD MORE TRAVEL
100
AcDbText
  0
LINE
  5
B80
102
{ACAD_REACTORS
330
C1C
102
}
330
1F
100
AcDbEntity
  8
0
100
AcDbLine
 10
10.83803062664807
 20
28.60755153872127
 30
0.0
 11
14.83803062664807
 21
28.60755153872127
 31
0.0
  0
LINE
  5
B81
330
1F
100
AcDbEntity
  8
0
100
AcDbLine
 10
14.83803062664807
 20
28.82587557326731
 30
0.0
 11
14.83803062664807
 21
27.20791659886082
 31
0.0
  0
LINE
  5
B82
330
1F
100
AcDbEntity
  8
0
100
AcDbLine
 10
14.83803062664807
 20
25.07587557326731
 30
0.0
 11
14.83803062664807
 21
26.6938345476738
 31
0.0
  0
LINE
  5
B83
330
1F
100
AcDbEntity
  8
0
100
AcDbLine
 10
10.83803062664807
 20
25.29419966643168
 30
0.0
 11
14.83803062664807
 21
25.29419966643168
 31
0.0
  0
DIMENSION
  5
B84
330
1F
100
AcDbEntity
  8
EXT
100
AcDbDimension
  2
*D36
 10
11.83803062664807
 20
25.25134978855928
 30
0.0
 11
11.33803062664807
 21
25.25134978855928
 31
0.0
 70
    32
 71
     5
 42
0.9999999999999982
  3
Standard
100
AcDbAlignedDimension
 13
10.83803062664807
 23
25.82587557326732
 33
0.0
 14
11.83803062664807
 24
25.82587557326732
 34
0.0
100
AcDbRotatedDimension
1001
ACAD
1000
DSTYLE
1002
{
1070
    40
1040
0.5
1002
}
  0
LINE
  5
B9F
330
1F
100
AcDbEntity
  8
0
  6
HIDDEN
100
AcDbLine
 10
10.83803062664807
 20
25.82587557326732
 30
0.0
 11
14.83803062664807
 21
25.82587557326732
 31
0.0
  0
LINE
  5
BA0
330
1F
100
AcDbEntity
  8
0
  6
HIDDEN
100
AcDbLine
 10
11.83803062664807
 20
28.07587557326732
 30
0.0
 11
14.83803062664807
 21
28.07587557326732
 31
0.0
  0
LINE
  5
BA1
102
{ACAD_REACTORS
330
C1C
102
}
330
1F
100
AcDbEntity
  8
0
  6
HIDDEN
100
AcDbLine
 10
10.83803062664807
 20
28.60755153872127
 30
0.0
 11
10.83803062664807
 21
25.29419966643168
 31
0.0
  0
LEADER
  5
BA3
330
1F
100
AcDbEntity
  8
EXT
  6
Continuous
100
AcDbLeader
  3
Standard
 73
     0
 40
0.09
 41
1.709999999999998
 76
     3
 10
12.01841552940739
 20
28.64181937592862
 30
0.0
 10
12.31276626878997
 20
29.37273045259507
 30
0.0
 10
12.46468917422333
 20
29.37273045259507
 30
0.0
340
BA4
213
0.0
223
-0.045
233
0.0
1001
ACAD
1000
DSTYLE
1002
{
1070
   147
1040
0.09
1070
    77
1070
     0
1070
    40
1040
0.5
1002
}
  0
MTEXT
  5
BA4
102
{ACAD_REACTORS
330
BA3
102
}
330
1F
100
AcDbEntity
  8
EXT
  6
Continuous
100
AcDbMText
 10
12.50968917422333
 20
29.41773045259507
 30
0.0
 40
0.09
 41
0.0
 71
     1
 72
     1
  1
\A1;STEEL PIPE EXTENSION
 73
     1
 44
1.0
  0
LINE
  5
BA5
330
1F
100
AcDbEntity
  8
EXT
  6
Continuous
100
AcDbLine
 10
14.83803062664807
 20
28.82587557326731
 30
0.0
 11
14.83803062664807
 21
30.31191545355846
 31
0.0
  0
LINE
  5
BA6
330
1F
100
AcDbEntity
  8
EXT
100
AcDbLine
 10
14.96890042581493
 20
24.11878379216356
 30
0.0
 11
15.15850119241125
 21
24.11878379216356
 31
0.0
  0
LINE
  5
BA7
330
1F
100
AcDbEntity
  8
EXT
100
AcDbLine
 10
14.87410014721638
 20
24.18774990106235
 30
0.0
 11
14.93442765434253
 21
24.00671356552764
 31
0.0
  0
LINE
  5
BA8
330
1F
100
AcDbEntity
  8
EXT
100
AcDbLine
 10
14.84824562096191
 20
24.1015422649389
 30
0.0
 11
14.87410014721638
 21
24.18774990106235
 31
0.0
  0
LINE
  5
BA9
330
1F
100
AcDbEntity
  8
EXT
100
AcDbLine
 10
14.71897236149173
 20
24.1015422649389
 30
0.0
 11
14.84824562096191
 21
24.1015422649389
 31
0.0
  0
LINE
  5
BAA
330
1F
100
AcDbEntity
  8
EXT
100
AcDbLine
 10
14.93442765434253
 20
24.00671356552764
 30
0.0
 11
14.96890042581493
 21
24.11878379216356
 31
0.0
  0
LINE
  5
BAB
330
1F
100
AcDbEntity
  8
EXT
  6
Continuous
100
AcDbLine
 10
14.83803062664807
 20
25.07587557326731
 30
0.0
 11
14.83803062664807
 21
24.11341015975545
 31
0.0
  0
LINE
  5
BC1
330
1F
100
AcDbEntity
  8
0
  6
Continuous
100
AcDbLine
 10
10.83803062664807
 20
25.29419966643168
 30
0.0
 11
10.83803062664807
 21
25.85518565187545
 31
0.0
  0
LINE
  5
BC2
330
1F
100
AcDbEntity
  8
EXT
  6
Continuous
100
AcDbLine
 10
15.83803062664808
 20
28.82587557326731
 30
0.0
 11
15.83803062664808
 21
30.31191545355846
 31
0.0
  0
LINE
  5
BC3
330
1F
100
AcDbEntity
  8
EXT
  6
Continuous
100
AcDbLine
 10
15.83803062664808
 20
25.07587557326731
 30
0.0
 11
15.83803062664808
 21
24.11341015975545
 31
0.0
  0
LINE
  5
BC5
330
1F
100
AcDbEntity
  8
0
  6
Continuous
100
AcDbLine
 10
15.83803062664808
 20
28.82587557326731
 30
0.0
 11
26.83803062664807
 21
28.82587557326731
 31
0.0
  0
TEXT
  5
BC6
330
1F
100
AcDbEntity
  8
EXT
100
AcDbText
 10
15.08072472646353
 20
24.55367591796242
 30
0.0
 40
0.09
  1
EXIST.
100
AcDbText
  0
TEXT
  5
BC7
330
1F
100
AcDbEntity
  8
EXT
100
AcDbText
 10
15.08235010431305
 20
24.40375157550626
 30
0.0
 40
0.09
  1
MILL
100
AcDbText
  0
DIMENSION
  5
BC8
102
{ACAD_XDICTIONARY
360
BD6
102
}
102
{ACAD_REACTORS
330
BE1
102
}
330
1F
100
AcDbEntity
  8
EXT
  6
Continuous
100
AcDbDimension
  2
*D37
 10
22.12592141169599
 20
27.13045735981148
 30
0.0
 11
17.82897601917204
 21
27.13045735981148
 31
0.0
 70
    32
 71
     5
 42
8.59389078504792
  3
Standard
100
AcDbAlignedDimension
 13
13.53203062664807
 23
27.73437557326731
 33
0.0
 14
22.12592141169599
 24
27.74978524828785
 34
0.0
100
AcDbRotatedDimension
1001
ACAD
1000
DSTYLE
1002
{
1070
    40
1040
0.5
1002
}
  0
LWPOLYLINE
  5
BE2
330
1F
100
AcDbEntity
  8
EXT
  6
Continuous
100
AcDbPolyline
 90
        4
 70
     1
 43
0.0
 10
15.92889358731942
 20
27.61112643587076
 10
19.60466146445544
 20
27.61112643587076
 10
19.60466146445544
 20
26.34169446041269
 10
15.92889358731942
 20
26.34169446041269
  0
LWPOLYLINE
  5
BE3
330
1F
100
AcDbEntity
  8
EXT
  6
Continuous
100
AcDbPolyline
 90
        4
 70
     1
 43
0.0
 10
15.82864539689275
 20
27.71134470498768
 10
19.72718702121139
 20
27.71134470498768
 10
19.72718702121139
 20
26.26374687217417
 10
15.82864539689275
 20
26.26374687217417
  0
LWPOLYLINE
  5
BE4
330
1F
100
AcDbEntity
  8
EXT
  6
Continuous
100
AcDbPolyline
 90
        4
 70
     1
 43
0.0
 10
15.6058715658203
 20
27.77815692347786
 10
19.93882212717427
 20
27.77815692347786
 10
19.93882212717427
 20
26.10785169569712
 10
15.6058715658203
 20
26.10785169569712
  0
DIMENSION
  5
C03
102
{ACAD_XDICTIONARY
360
C11
102
}
102
{ACAD_REACTORS
330
C1C
102
}
330
1F
100
AcDbEntity
  8
EXT
  6
Continuous
100
AcDbDimension
  2
*D38
 10
14.83803062664807
 20
28.76920471384524
 30
0.0
 11
12.83803062664808
 21
28.76920471384524
 31
0.0
 70
    32
 71
     5
 42
4.0
  3
Standard
100
AcDbAlignedDimension
 13
10.83803062664807
 23
28.60755153872127
 33
0.0
 14
14.83803062664807
 24
28.60755153872127
 34
0.0
100
AcDbRotatedDimension
1001
ACAD
1000
DSTYLE
1002
{
1070
    40
1040
0.5
1002
}
  0
LEADER
  5
C1D
330
1F
100
AcDbEntity
  8
EXT
  6
Continuous
100
AcDbLeader
  3
Standard
 73
     0
 40
0.09
 41
2.61
 76
     3
 10
13.70115552826446
 20
26.66462012449681
 30
0.0
 10
15.65042638236869
 20
25.69584307362613
 30
0.0
 10
15.89547749588058
 20
25.69584307362613
 30
0.0
340
C1E
213
0.0
223
-0.045
233
0.0
1001
ACAD
1000
DSTYLE
1002
{
1070
   147
1040
0.09
1070
    77
1070
     0
1070
    40
1040
0.5
1002
}
  0
MTEXT
  5
C1E
102
{ACAD_REACTORS
330
C1D
102
}
330
1F
100
AcDbEntity
  8
EXT
  6
Continuous
100
AcDbMText
 10
15.94047749588058
 20
25.74084307362613
 30
0.0
 40
0.09
 41
0.0
 71
     1
 72
     1
  1
REDUCED PRESS FIT DEPTH TO 1.5"
 73
     1
 44
1.0
  0
MTEXT
  5
C1F
330
1F
100
AcDbEntity
  8
EXT
  6
Continuous
100
AcDbMText
 10
15.94047749588058
 20
25.57381252740074
 30
0.0
 40
0.09
 41
0.0
 71
     1
 72
     1
  1
WILL ADD SET SCREWS
 73
     1
 44
1.0
  0
DIMENSION
  5
C22
102
{ACAD_XDICTIONARY
360
C30
102
}
102
{ACAD_REACTORS
330
C3B
102
}
330
1F
100
AcDbEntity
  8
EXT
  6
Continuous
100
AcDbDimension
  2
*D39
 10
26.87592141169599
 20
28.01800642425315
 30
0.0
 11
24.500921411696
 21
28.01800642425315
 31
0.0
 70
    32
 71
     5
 42
4.75
  3
Standard
100
AcDbAlignedDimension
 13
22.12592141169599
 23
27.74978524828785
 33
0.0
 14
26.87592141169599
 24
27.74978524828785
 34
0.0
100
AcDbRotatedDimension
1001
ACAD
1000
DSTYLE
1002
{
1070
    40
1040
0.5
1002
}
  0
DIMENSION
  5
C43
102
{ACAD_XDICTIONARY
360
C51
102
}
102
{ACAD_REACTORS
330
C5C
102
}
330
1F
100
AcDbEntity
  8
EXT
  6
Continuous
100
AcDbDimension
  2
*D40
 10
13.53203062664808
 20
24.98462035211427
 30
0.0
 11
11.81003062664807
 21
24.98462035211427
 31
0.0
 70
    32
 71
     5
 42
3.444000000000002
  3
Standard
100
AcDbAlignedDimension
 13
10.08803062664807
 23
25.32587557326731
 33
0.0
 14
13.53203062664808
 24
26.16737557326731
 34
0.0
100
AcDbRotatedDimension
1001
ACAD
1000
DSTYLE
1002
{
1070
    40
1040
0.5
1002
}
  0
ENDSEC
  0
SECTION
  2
OBJECTS
  0
DICTIONARY
  5
C
330
0
100
AcDbDictionary
281
     1
  3
ACAD_GROUP
350
D
  3
ACAD_LAYOUT
350
1A
  3
ACAD_MLINESTYLE
350
17
  3
ACAD_PLOTSETTINGS
350
19
  3
ACAD_PLOTSTYLENAME
350
E
  3
AcadDim
350
BA2
  3
AcDbVariableDictionary
350
66
  0
DICTIONARY
  5
113
330
105
100
AcDbDictionary
280
     1
281
     1
  3
ACAD_DIMASSOC
360
11E
  0
DICTIONARY
  5
1AD
330
19F
100
AcDbDictionary
280
     1
281
     1
  3
ACAD_DIMASSOC
360
1B8
  0
DICTIONARY
  5
254
330
246
100
AcDbDictionary
280
     1
281
     1
  3
ACAD_DIMASSOC
360
25F
  0
DICTIONARY
  5
6DF
330
6D1
100
AcDbDictionary
280
     1
281
     1
  3
ACAD_DIMASSOC
360
6EA
  0
DICTIONARY
  5
6FA
330
6EC
100
AcDbDictionary
280
     1
281
     1
  3
ACAD_DIMASSOC
360
705
  0
DICTIONARY
  5
72C
330
71E
100
AcDbDictionary
280
     1
281
     1
  3
ACAD_DIMASSOC
360
737
  0
DICTIONARY
  5
751
330
743
100
AcDbDictionary
280
     1
281
     1
  3
ACAD_DIMASSOC
360
75C
  0
DICTIONARY
  5
76B
330
75D
100
AcDbDictionary
280
     1
281
     1
  3
ACAD_DIMASSOC
360
776
  0
DICTIONARY
  5
785
330
777
100
AcDbDictionary
280
     1
281
     1
  3
ACAD_DIMASSOC
360
790
  0
DICTIONARY
  5
7CB
330
7BD
100
AcDbDictionary
280
     1
281
     1
  3
ACAD_DIMASSOC
360
7D6
  0
DICTIONARY
  5
7F0
330
7E2
100
AcDbDictionary
280
     1
281
     1
  3
ACAD_DIMASSOC
360
7FB
  0
DICTIONARY
  5
80C
330
7FE
100
AcDbDictionary
280
     1
281
     1
  3
ACAD_DIMASSOC
360
817
  0
DICTIONARY
  5
85B
330
84D
100
AcDbDictionary
280
     1
281
     1
  3
ACAD_DIMASSOC
360
866
  0
DICTIONARY
  5
913
330
905
100
AcDbDictionary
280
     1
281
     1
  3
ACAD_DIMASSOC
360
91E
  0
DICTIONARY
  5
977
330
969
100
AcDbDictionary
280
     1
281
     1
  3
ACAD_DIMASSOC
360
982
  0
DICTIONARY
  5
997
330
989
100
AcDbDictionary
280
     1
281
     1
  3
ACAD_DIMASSOC
360
9A2
  0
DICTIONARY
  5
9B2
330
9A4
100
AcDbDictionary
280
     1
281
     1
  3
ACAD_DIMASSOC
360
9BD
  0
DICTIONARY
  5
9CC
330
9BE
100
AcDbDictionary
280
     1
281
     1
  3
ACAD_DIMASSOC
360
9D7
  0
DICTIONARY
  5
9F5
330
9F4
100
AcDbDictionary
280
     1
281
     1
  3
ACAD_DIMASSOC
360
9F6
  0
DICTIONARY
  5
9F8
330
9F7
100
AcDbDictionary
280
     1
281
     1
  3
ACAD_DIMASSOC
360
9F9
  0
DICTIONARY
  5
A0E
330
A0D
100
AcDbDictionary
280
     1
281
     1
  3
ACAD_DIMASSOC
360
A0F
  0
DICTIONARY
  5
A36
330
A35
100
AcDbDictionary
280
     1
281
     1
  3
ACAD_DIMASSOC
360
A37
  0
DICTIONARY
  5
A4C
330
A4B
100
AcDbDictionary
280
     1
281
     1
  3
ACAD_DIMASSOC
360
A4D
  0
DICTIONARY
  5
A52
330
A51
100
AcDbDictionary
280
     1
281
     1
  3
ACAD_DIMASSOC
360
A53
  0
DICTIONARY
  5
BD6
330
BC8
100
AcDbDictionary
280
     1
281
     1
  3
ACAD_DIMASSOC
360
BE1
  0
DICTIONARY
  5
C11
330
C03
100
AcDbDictionary
280
     1
281
     1
  3
ACAD_DIMASSOC
360
C1C
  0
DICTIONARY
  5
C30
330
C22
100
AcDbDictionary
280
     1
281
     1
  3
ACAD_DIMASSOC
360
C3B
  0
DICTIONARY
  5
C51
330
C43
100
AcDbDictionary
280
     1
281
     1
  3
ACAD_DIMASSOC
360
C5C
  0
DICTIONARY
  5
D
102
{ACAD_REACTORS
330
C
102
}
330
C
100
AcDbDictionary
281
     1
  0
DICTIONARY
  5
1A
102
{ACAD_REACTORS
330
C
102
}
330
C
100
AcDbDictionary
281
     1
  3
Layout1
350
59
  3
Layout2
350
5E
  3
Model
350
22
  0
DICTIONARY
  5
17
102
{ACAD_REACTORS
330
C
102
}
330
C
100
AcDbDictionary
281
     1
  3
Standard
350
18
  0
DICTIONARY
  5
19
102
{ACAD_REACTORS
330
C
102
}
330
C
100
AcDbDictionary
281
     1
  0
ACDBDICTIONARYWDFLT
  5
E
102
{ACAD_REACTORS
330
C
102
}
330
C
100
AcDbDictionary
281
     1
  3
Normal
350
F
100
AcDbDictionaryWithDefault
340
F
  0
XRECORD
  5
BA2
102
{ACAD_REACTORS
330
C
102
}
330
C
100
AcDbXrecord
280
     1
 90
   990106
  3

 60
     0
 61
     0
 62
     1
 63
     3
 64
     0
 65
     0
 66
     0
 67
     3
 68
     1
 69
     0
 70
     0
 71
     0
 72
     0
 40
0.0
170
     0
340
C1E
  0
DICTIONARY
  5
66
102
{ACAD_REACTORS
330
C
102
}
330
C
100
AcDbDictionary
281
     1
  3
DIMASSOC
350
67
  3
HIDETEXT
350
6B
  0
DIMASSOC
  5
11E
102
{ACAD_REACTORS
330
113
102
}
330
113
100
AcDbDimAssoc
330
105
 90
        3
 70
     0
 71
     0
  1
AcDbOsnapPointRef
 72
     6
331
74
 73
     2
 91
        0
 40
0.0
 10
6.635682164656708
 20
11.5137250031803
 30
0.0
332
76
 74
     2
 92
        0
 75
     0
  1
AcDbOsnapPointRef
 72
     6
331
75
 73
     2
 91
        0
 40
0.0
 10
6.635682164656709
 20
11.0137250031803
 30
0.0
332
76
 74
     2
 92
        0
 75
     0
  0
DIMASSOC
  5
1B8
102
{ACAD_REACTORS
330
1AD
102
}
330
1AD
100
AcDbDimAssoc
330
19F
 90
        3
 70
     0
 71
     0
  1
AcDbOsnapPointRef
 72
     6
331
96
 73
     2
 91
        0
 40
1.0
 10
12.03203062664807
 20
11.6222250031803
 30
0.0
332
97
 74
     2
 92
        0
 75
     0
  1
AcDbOsnapPointRef
 72
     6
331
96
 73
     2
 91
        0
 40
0.0
 10
15.03203062664808
 20
11.6222250031803
 30
0.0
332
91
 74
     2
 92
        0
 75
     0
  0
DIMASSOC
  5
25F
102
{ACAD_REACTORS
330
254
102
}
330
254
100
AcDbDimAssoc
330
246
 90
        2
 70
     0
 71
     0
  1
AcDbOsnapPointRef
 72
     6
331
89
 73
     2
 91
        0
 40
1.0
 10
15.03203062664807
 20
10.4802250031803
 30
0.0
332
92
 74
     2
 92
        0
 75
     0
  0
DIMASSOC
  5
6EA
102
{ACAD_REACTORS
330
6DF
102
}
330
6DF
100
AcDbDimAssoc
330
6D1
 90
        3
 70
     0
 71
     0
  1
AcDbOsnapPointRef
 72
     6
331
33D
 73
     2
 91
        0
 40
0.6972191319813263
 10
7.643207415454691
 20
15.50773424545735
 30
0.0
332
624
 74
     2
 92
        0
 75
     0
  1
AcDbOsnapPointRef
 72
     8
331
34D
 73
     2
 91
        0
 40
0.2411376326407867
 10
9.643207415454691
 20
15.50773424545735
 30
0.0
 75
     1
  1
AcDbOsnapPointRef
 72
     6
331
33D
 73
     2
 91
        0
 40
0.6972191319813263
 10
7.643207415454691
 20
15.50773424545735
 30
0.0
332
624
 74
     2
 92
        0
 75
     0
  0
DIMASSOC
  5
705
102
{ACAD_REACTORS
330
6FA
102
}
330
6FA
100
AcDbDimAssoc
330
6EC
 90
        3
 70
     0
 71
     0
  1
AcDbOsnapPointRef
 72
     2
331
34E
 73
     2
 91
        0
 40
0.5
 10
9.14321809221496
 20
17.40489016385539
 30
0.0
 75
     0
  1
AcDbOsnapPointRef
 72
     6
331
35E
 73
     2
 91
        0
 40
0.0
 10
10.13542837758411
 20
16.94229016385539
 30
0.0
332
35D
 74
     2
 92
        0
 75
     0
  0
DIMASSOC
  5
737
102
{ACAD_REACTORS
330
72C
102
}
330
72C
100
AcDbDimAssoc
330
71E
 90
        3
 70
     0
 71
     0
  1
AcDbOsnapPointRef
 72
     6
331
74
 73
     2
 91
        0
 40
0.0
 10
6.635682164656708
 20
11.5137250031803
 30
0.0
332
76
 74
     2
 92
        0
 75
     0
  1
AcDbOsnapPointRef
 72
     6
331
74
 73
     2
 91
        0
 40
0.9999999999999998
 10
9.592342380508711
 20
11.5137250031803
 30
0.0
332
693
 74
     2
 92
        0
 75
     0
  0
DIMASSOC
  5
75C
102
{ACAD_REACTORS
330
751
102
}
330
751
100
AcDbDimAssoc
330
743
 90
        3
 70
     0
 71
     0
  1
AcDbOsnapPointRef
 72
     6
331
74
 73
     2
 91
        0
 40
0.9999999999999998
 10
9.592342380508711
 20
11.5137250031803
 30
0.0
332
693
 74
     2
 92
        0
 75
     0
  1
AcDbOsnapPointRef
 72
     6
331
691
 73
     2
 91
        0
 40
0.0
 10
10.21303062664807
 20
11.5762250031803
 30
0.0
332
690
 74
     2
 92
        0
 75
     0
  0
DIMASSOC
  5
776
102
{ACAD_REACTORS
330
76B
102
}
330
76B
100
AcDbDimAssoc
330
75D
 90
        1
 70
     0
 71
     0
  1
AcDbOsnapPointRef
 72
     6
331
691
 73
     2
 91
        0
 40
0.0
 10
10.21303062664807
 20
11.5762250031803
 30
0.0
332
690
 74
     2
 92
        0
 75
     0
  0
DIMASSOC
  5
790
102
{ACAD_REACTORS
330
785
102
}
330
785
100
AcDbDimAssoc
330
777
 90
        2
 70
     0
 71
     0
  1
AcDbOsnapPointRef
 72
     6
331
81
 73
     2
 91
        0
 40
1.0
 10
11.28203062664807
 20
11.7233750031803
 30
0.0
332
83
 74
     2
 92
        0
 75
     0
  0
DIMASSOC
  5
7D6
102
{ACAD_REACTORS
330
7CB
102
}
330
7CB
100
AcDbDimAssoc
330
7BD
 90
        2
 70
     0
 71
     0
  1
AcDbOsnapPointRef
 72
     6
331
366
 73
     2
 91
        0
 40
1.0
 10
11.20442837758411
 20
15.36749016385539
 30
0.0
332
36E
 74
     2
 92
        0
 75
     0
  0
DIMASSOC
  5
7FB
102
{ACAD_REACTORS
330
7F0
102
}
330
7F0
100
AcDbDimAssoc
330
7E2
 90
        3
 70
     0
 71
     0
  1
AcDbOsnapPointRef
 72
     6
331
5C1
 73
     2
 91
        0
 40
0.0
 10
11.28203062664808
 20
16.93839016385538
 30
0.0
332
31F
 74
     2
 92
        0
 75
     0
  1
AcDbOsnapPointRef
 72
     6
331
5C2
 73
     2
 91
        0
 40
0.0
 10
11.28203062664807
 20
15.37139016385539
 30
0.0
332
322
 74
     2
 92
        0
 75
     0
  0
DIMASSOC
  5
817
102
{ACAD_REACTORS
330
80C
102
}
330
80C
100
AcDbDimAssoc
330
7FE
 90
        3
 70
     0
 71
     0
  1
AcDbOsnapPointRef
 72
     6
331
64C
 73
     2
 91
        0
 40
0.0
 10
10.83803062664807
 20
17.27989016385539
 30
0.0
332
5D1
 74
     2
 92
        0
 75
     0
  1
AcDbOsnapPointRef
 72
     6
331
5D0
 73
     2
 91
        0
 40
1.0
 10
11.83803062664807
 20
17.27989016385539
 30
0.0
332
5D1
 74
     2
 92
        0
 75
     0
  0
DIMASSOC
  5
866
102
{ACAD_REACTORS
330
85B
102
}
330
85B
100
AcDbDimAssoc
330
84D
 90
        3
 70
     0
 71
     0
  1
AcDbOsnapPointRef
 72
     6
331
366
 73
     2
 91
        0
 40
0.0
 10
11.20442837758411
 20
16.94229016385539
 30
0.0
332
372
 74
     2
 92
        0
 75
     0
  1
AcDbOsnapPointRef
 72
     6
331
367
 73
     2
 91
        0
 40
1.0
 10
10.73242837758412
 20
16.94229016385539
 30
0.0
332
372
 74
     2
 92
        0
 75
     0
  0
DIMASSOC
  5
91E
102
{ACAD_REACTORS
330
913
102
}
330
913
100
AcDbDimAssoc
330
905
 90
        2
 70
     0
 71
     0
  1
AcDbOsnapPointRef
 72
     6
331
89
 73
     2
 91
        0
 40
1.0
 10
15.03203062664807
 20
10.4802250031803
 30
0.0
332
92
 74
     2
 92
        0
 75
     0
  0
DIMASSOC
  5
982
102
{ACAD_REACTORS
330
977
102
}
330
977
100
AcDbDimAssoc
330
969
 90
        3
 70
     0
 71
     0
  1
AcDbOsnapPointRef
 72
     6
331
363
 73
     2
 91
        0
 40
0.9206248412496837
 10
10.60742837758412
 20
15.49249016385538
 30
0.0
332
518
 74
     2
 92
        0
 75
     0
  1
AcDbOsnapPointRef
 72
     6
331
365
 73
     2
 91
        0
 40
0.9206248412496826
 10
10.73242837758412
 20
15.49249016385538
 30
0.0
332
518
 74
     2
 92
        0
 75
     0
  0
DIMASSOC
  5
9A2
102
{ACAD_REACTORS
330
997
102
}
330
997
100
AcDbDimAssoc
330
989
 90
        3
 70
     0
 71
     0
  1
AcDbOsnapPointRef
 72
     6
331
606
 73
     2
 91
        0
 40
-0.0000000000000084
 10
15.03203062664807
 20
16.93839016385539
 30
0.0
332
5C1
 74
     2
 92
        0
 75
     0
  1
AcDbOsnapPointRef
 72
     6
331
988
 73
     2
 91
        0
 40
0.0
 10
18.08803062664807
 20
16.95379983887592
 30
0.0
332
987
 74
     2
 92
        0
 75
     0
  0
DIMASSOC
  5
9BD
102
{ACAD_REACTORS
330
9B2
102
}
330
9B2
100
AcDbDimAssoc
330
9A4
 90
        3
 70
     0
 71
     0
  1
AcDbOsnapPointRef
 72
     6
331
606
 73
     2
 91
        0
 40
-0.0000000000000084
 10
15.03203062664807
 20
16.93839016385539
 30
0.0
332
5C1
 74
     2
 92
        0
 75
     0
  1
AcDbOsnapPointRef
 72
     6
331
986
 73
     2
 91
        0
 40
1.0
 10
22.83803062664807
 20
16.95379983887592
 30
0.0
332
987
 74
     2
 92
        0
 75
     0
  0
DIMASSOC
  5
9D7
102
{ACAD_REACTORS
330
9CC
102
}
330
9CC
100
AcDbDimAssoc
330
9BE
 90
        1
 70
     0
 71
     0
  1
AcDbOsnapPointRef
 72
     1
331
5D0
 73
     2
 91
        0
 40
1.0
 10
11.83803062664807
 20
17.27989016385539
 30
0.0
 75
     0
  0
DIMASSOC
  5
9F6
102
{ACAD_REACTORS
330
9F5
102
}
330
9F5
100
AcDbDimAssoc
330
9F4
 90
        3
 70
     0
 71
     0
  1
AcDbOsnapPointRef
 72
     6
331
A50
 73
     2
 91
        0
 40
0.9206248412496837
 10
10.60742837758412
 20
15.49249016385538
 30
0.0
332
A61
 74
     2
 92
        0
 75
     0
  1
AcDbOsnapPointRef
 72
     6
331
A4F
 73
     2
 91
        0
 40
0.9206248412496826
 10
10.73242837758412
 20
15.49249016385538
 30
0.0
332
A61
 74
     2
 92
        0
 75
     0
  0
DIMASSOC
  5
9F9
102
{ACAD_REACTORS
330
9F8
102
}
330
9F8
100
AcDbDimAssoc
330
9F7
 90
        3
 70
     0
 71
     0
  1
AcDbOsnapPointRef
 72
     6
331
A4E
 73
     2
 91
        0
 40
0.0
 10
11.20442837758411
 20
16.94229016385539
 30
0.0
332
A8F
 74
     2
 92
        0
 75
     0
  1
AcDbOsnapPointRef
 72
     6
331
A49
 73
     2
 91
        0
 40
1.0
 10
10.73242837758412
 20
16.94229016385539
 30
0.0
332
A8F
 74
     2
 92
        0
 75
     0
  0
DIMASSOC
  5
A0F
102
{ACAD_REACTORS
330
A0E
102
}
330
A0E
100
AcDbDimAssoc
330
A0D
 90
        3
 70
     0
 71
     0
  1
AcDbOsnapPointRef
 72
     6
331
A03
 73
     2
 91
        0
 40
0.6972191319813263
 10
7.643207415454691
 20
15.50773424545735
 30
0.0
332
A11
 74
     2
 92
        0
 75
     0
  1
AcDbOsnapPointRef
 72
     8
331
A02
 73
     2
 91
        0
 40
0.2411376326407867
 10
9.643207415454691
 20
15.50773424545735
 30
0.0
 75
     1
  1
AcDbOsnapPointRef
 72
     6
331
A03
 73
     2
 91
        0
 40
0.6972191319813263
 10
7.643207415454691
 20
15.50773424545735
 30
0.0
332
A11
 74
     2
 92
        0
 75
     0
  0
DIMASSOC
  5
A37
102
{ACAD_REACTORS
330
A36
102
}
330
A36
100
AcDbDimAssoc
330
A35
 90
        3
 70
     0
 71
     0
  1
AcDbOsnapPointRef
 72
     2
331
A2E
 73
     2
 91
        0
 40
0.5
 10
9.14321809221496
 20
17.40489016385539
 30
0.0
 75
     0
  1
AcDbOsnapPointRef
 72
     6
331
9FB
 73
     2
 91
        0
 40
0.0
 10
10.13542837758411
 20
16.94229016385539
 30
0.0
332
9FE
 74
     2
 92
        0
 75
     0
  0
DIMASSOC
  5
A4D
102
{ACAD_REACTORS
330
A4C
102
}
330
A4C
100
AcDbDimAssoc
330
A4B
 90
        2
 70
     0
 71
     0
  1
AcDbOsnapPointRef
 72
     6
331
A4E
 73
     2
 91
        0
 40
1.0
 10
11.20442837758411
 20
15.36749016385539
 30
0.0
332
A5F
 74
     2
 92
        0
 75
     0
  0
DIMASSOC
  5
A53
102
{ACAD_REACTORS
330
A52
102
}
330
A52
100
AcDbDimAssoc
330
A51
 90
        3
 70
     0
 71
     0
  1
AcDbOsnapPointRef
 72
     6
331
A86
 73
     2
 91
        0
 40
0.0
 10
11.28203062664808
 20
27.73437557326731
 30
0.0
332
A48
 74
     2
 92
        0
 75
     0
  1
AcDbOsnapPointRef
 72
     6
331
A57
 73
     2
 91
        0
 40
0.0
 10
11.28203062664807
 20
26.16737557326731
 30
0.0
332
A5C
 74
     2
 92
        0
 75
     0
  0
DIMASSOC
  5
BE1
102
{ACAD_REACTORS
330
BD6
102
}
330
BD6
100
AcDbDimAssoc
330
BC8
 90
        3
 70
     0
 71
     0
  1
AcDbOsnapPointRef
 72
     1
331
A46
 73
     2
 91
        0
 40
1.0
 10
13.53203062664807
 20
27.73437557326731
 30
0.0
 75
     0
  1
AcDbOsnapPointRef
 72
     1
331
A9A
 73
     2
 91
        0
 40
1.0
 10
22.12592141169599
 20
27.74978524828785
 30
0.0
 75
     0
  0
DIMASSOC
  5
C1C
102
{ACAD_REACTORS
330
C11
102
}
330
C11
100
AcDbDimAssoc
330
C03
 90
        3
 70
     0
 71
     0
  1
AcDbOsnapPointRef
 72
    13
331
BA1
 73
     2
 91
        0
 40
0.0
 10
10.83803062664807
 20
28.60755153872127
 30
0.0
 75
     0
  1
AcDbOsnapPointRef
 72
     1
331
B80
 73
     2
 91
        0
 40
1.0
 10
14.83803062664807
 20
28.60755153872127
 30
0.0
 75
     0
  0
DIMASSOC
  5
C3B
102
{ACAD_REACTORS
330
C30
102
}
330
C30
100
AcDbDimAssoc
330
C22
 90
        3
 70
     0
 71
     0
  1
AcDbOsnapPointRef
 72
     1
331
A9A
 73
     2
 91
        0
 40
1.0
 10
22.12592141169599
 20
27.74978524828785
 30
0.0
 75
     0
  1
AcDbOsnapPointRef
 72
    13
331
A9A
 73
     2
 91
        0
 40
0.0
 10
26.87592141169599
 20
27.74978524828785
 30
0.0
 75
     0
  0
DIMASSOC
  5
C5C
102
{ACAD_REACTORS
330
C51
102
}
330
C51
100
AcDbDimAssoc
330
C43
 90
        3
 70
     0
 71
     0
  1
AcDbOsnapPointRef
 72
     6
331
A05
 73
     2
 91
        0
 40
1.0
 10
10.08803062664807
 20
25.32587557326731
 30
0.0
332
9FD
 74
     2
 92
        0
 75
     0
  1
AcDbOsnapPointRef
 72
     1
331
A57
 73
     2
 91
        0
 40
1.0
 10
13.53203062664808
 20
26.16737557326731
 30
0.0
 75
     0
  0
LAYOUT
  5
59
102
{ACAD_REACTORS
330
1A
102
}
330
1A
100
AcDbPlotSettings
  1

  2
None
  4

  6

 40
0.0
 41
0.0
 42
0.0
 43
0.0
 44
0.0
 45
0.0
 46
0.0
 47
0.0
 48
0.0
 49
0.0
140
0.0
141
0.0
142
1.0
143
1.0
 70
   688
 72
     0
 73
     0
 74
     5
  7
monochrome.ctb
 75
    16
147
1.0
148
0.0
149
0.0
100
AcDbLayout
  1
Layout1
 70
     1
 71
     1
 10
0.0
 20
0.0
 11
12.0
 21
9.0
 12
0.0
 22
0.0
 32
0.0
 14
0.0
 24
0.0
 34
0.0
 15
0.0
 25
0.0
 35
0.0
146
0.0
 13
0.0
 23
0.0
 33
0.0
 16
1.0
 26
0.0
 36
0.0
 17
0.0
 27
1.0
 37
0.0
 76
     0
330
58
  0
LAYOUT
  5
5E
102
{ACAD_REACTORS
330
1A
102
}
330
1A
100
AcDbPlotSettings
  1

  2
None
  4

  6

 40
0.0
 41
0.0
 42
0.0
 43
0.0
 44
0.0
 45
0.0
 46
0.0
 47
0.0
 48
0.0
 49
0.0
140
0.0
141
0.0
142
1.0
143
1.0
 70
   688
 72
     0
 73
     0
 74
     5
  7
monochrome.ctb
 75
    16
147
1.0
148
0.0
149
0.0
100
AcDbLayout
  1
Layout2
 70
     1
 71
     2
 10
0.0
 20
0.0
 11
12.0
 21
9.0
 12
0.0
 22
0.0
 32
0.0
 14
0.0
 24
0.0
 34
0.0
 15
0.0
 25
0.0
 35
0.0
146
0.0
 13
0.0
 23
0.0
 33
0.0
 16
1.0
 26
0.0
 36
0.0
 17
0.0
 27
1.0
 37
0.0
 76
     0
330
5D
  0
LAYOUT
  5
22
102
{ACAD_REACTORS
330
1A
102
}
330
1A
100
AcDbPlotSettings
  1

  2
HP LaserJet 4
  4
Letter
  6

 40
7.143749713897705
 41
6.127734661102294
 42
7.14373779296875
 43
7.14373779296875
 44
215.8999938964843
 45
279.3999938964843
 46
7.112
 47
0.0
 48
6.042967943817906
 49
22.85744267519612
140
16.57444389774132
141
30.27810349265634
142
1.0
143
1.00515152520974
 70
 11956
 72
     0
 73
     1
 74
     4
  7
monochrome.ctb
 75
     0
147
0.9948748769906451
148
-153.4913857729748
149
-580.5790439499816
100
AcDbLayout
  1
Model
 70
     1
 71
     0
 10
0.0
 20
0.0
 11
12.0
 21
9.0
 12
0.0
 22
0.0
 32
0.0
 14
0.0
 24
0.0
 34
0.0
 15
0.0
 25
0.0
 35
0.0
146
0.0
 13
0.0
 23
0.0
 33
0.0
 16
1.0
 26
0.0
 36
0.0
 17
0.0
 27
1.0
 37
0.0
 76
     0
330
1F
  0
MLINESTYLE
  5
18
102
{ACAD_REACTORS
330
17
102
}
330
17
100
AcDbMlineStyle
  2
STANDARD
 70
     0
  3

 62
   256
 51
90.0
 52
90.0
 71
     2
 49
0.5
 62
   256
  6
BYLAYER
 49
-0.5
 62
   256
  6
BYLAYER
  0
ACDBPLACEHOLDER
  5
F
102
{ACAD_REACTORS
330
E
102
}
330
E
  0
DICTIONARYVAR
  5
67
102
{ACAD_REACTORS
330
66
102
}
330
66
100
DictionaryVariables
280
     0
  1
2
  0
DICTIONARYVAR
  5
6B
102
{ACAD_REACTORS
330
66
102
}
330
66
100
DictionaryVariables
280
     0
  1
1
  0
ENDSEC
  0
EOF
